<?xml version="1.0" standalone="no"?>
<!DOCTYPE svg PUBLIC "-//W3C//DTD SVG 1.1//EN" "http://www.w3.org/Graphics/SVG/1.1/DTD/svg11.dtd" >
<svg xmlns="http://www.w3.org/2000/svg" xmlns:xlink="http://www.w3.org/1999/xlink" version="1.1">
<metadata>
Created by FontForge 20170731 at Fri Jan  1 02:30:17 1904
 By Aleksey,,,
</metadata>
<defs>
<font id="Frutiger" horiz-adv-x="1229" >
  <font-face 
    font-family="Frutiger"
    font-weight="400"
    font-stretch="normal"
    units-per-em="2048"
    panose-1="2 11 5 0 0 0 0 0 0 0"
    ascent="1638"
    descent="-410"
    x-height="1026"
    cap-height="1419"
    bbox="-274 -481 2517 1987"
    underline-thickness="50"
    underline-position="-155"
    unicode-range="U+0020-F002"
  />
<missing-glyph horiz-adv-x="1536" 
d="M256 0v1280h1024v-1280h-1024zM1247 33v1214h-958v-1214h958z" />
    <glyph glyph-name=".notdef" horiz-adv-x="1536" 
d="M256 0v1280h1024v-1280h-1024zM1247 33v1214h-958v-1214h958z" />
    <glyph glyph-name=".null" horiz-adv-x="0" 
 />
    <glyph glyph-name="nonmarkingreturn" horiz-adv-x="588" 
 />
    <glyph glyph-name="space" unicode=" " horiz-adv-x="588" 
 />
    <glyph glyph-name="exclam" unicode="!" horiz-adv-x="819" 
d="M301 215h217v-215h-217v215zM301 1419h217l-35 -1034h-145z" />
    <glyph glyph-name="quotedbl" unicode="&#x22;" horiz-adv-x="612" 
d="M522 1436v-555h-139v555h139zM227 1436v-555h-139v555h139z" />
    <glyph glyph-name="numbersign" unicode="#" horiz-adv-x="1575" 
d="M969 856h-260l-95 -262h263zM924 1456l-162 -452h256l164 452h164l-160 -452h301l-51 -148h-303l-95 -260h324l-51 -147h-324l-162 -451h-163l159 451h-258l-162 -451h-163l157 451h-309l53 147h312l92 260h-330l49 148h334l162 452h166z" />
    <glyph glyph-name="dollar" unicode="$" horiz-adv-x="1176" 
d="M547 1276q-45 -12 -78 -31q-33 -18 -57 -45q-23 -26 -33 -57q-12 -31 -12 -68q0 -33 12 -61q10 -31 31 -58q22 -26 57 -49q35 -22 80 -45v414zM645 635v-471q47 8 86 29q37 18 64 47q28 30 43 67q14 35 14 74q0 41 -12 76q-15 35 -39 65q-25 31 -64 60q-39 26 -92 51v2z
M547 1608h98v-183q21 -2 41 -2q21 -2 41 -2q18 -2 38.5 -4t41.5 -6q20 -2 40.5 -6l41 -8t41.5 -11q20 -6 41 -12l-25 -164q-33 15 -69 29q-37 12 -74 21q-37 10 -76 14t-80 4l-2 -453q107 -43 182 -88q76 -47 123 -98q47 -49 70 -109q22 -59 22 -127q0 -79 -26 -145
q-27 -68 -80 -123q-51 -53 -125 -86q-74 -35 -166 -49v-170h-98v170h-23q-43 0 -86 2t-86 10t-84 21q-43 10 -84 24l23 187q39 -23 80 -39q41 -19 84 -29t88 -14q43 -6 88 -6v518q-96 33 -166 76q-72 41 -117 88t-67 104q-23 55 -23 121q0 72 25 133q24 59 73 104
q47 48 117 77.5t158 39.5v191z" />
    <glyph glyph-name="percent" unicode="%" horiz-adv-x="1778" 
d="M1380 623q-39 -2 -69 -21q-31 -18 -54 -53q-20 -35 -32 -82q-13 -49 -13 -111q0 -59 13 -106q12 -49 32 -84q23 -35 53.5 -53.5t69.5 -18.5q41 0 72 18.5t53 53.5q23 35 35 84q10 47 10 106q0 62 -10 111q-12 49 -35 84q-22 35 -53 52.5t-72 17.5v2zM1380 741
q78 -2 138 -26q59 -27 104 -78t68 -121q20 -72 20 -162q0 -88 -20 -157q-23 -70 -68 -123q-45 -51 -104 -76q-62 -25 -138 -25q-75 0 -135 25q-59 25 -104 78t-68 123q-22 67 -22 155q0 90 22 162q23 70 68 121t104 78q60 24 135 24v2zM410 1325q-39 -2 -70 -18
q-33 -19 -55 -54q-23 -34 -33 -82q-12 -49 -12 -108q0 -62 12 -109q10 -49 33 -84q22 -34 55 -51q31 -18 70 -18t69 18q31 17 53 51q23 35 34.5 82t11.5 111q0 61 -11 111q-12 47 -35 81q-20 35 -51.5 51.5t-70.5 16.5v2zM1202 1448h137l-751 -1475h-139zM408 1448
q75 -2 134.5 -27.5t104.5 -79.5q47 -51 70 -120q20 -72 20 -160t-20 -158q-23 -69 -70 -123q-45 -51 -104 -78q-60 -26 -135 -26q-76 0 -136 26q-61 27 -106 78q-45 54 -68 123q-22 70 -22 158t22 160q23 69 68 120q45 54 105.5 79.5t136.5 25.5v2z" />
    <glyph glyph-name="ampersand" unicode="&#x26;" horiz-adv-x="1419" 
d="M526 680q-53 -29 -94 -59.5t-70 -69.5q-28 -39 -43.5 -80t-15.5 -88q0 -55 23 -102q20 -48 63 -86.5t98 -57.5q54 -18 117 -18q47 0 88 8t80 27q39 16 74 45q33 26 63 59zM688 752l336 -363q29 39 50.5 82t35.5 92q16 47 26.5 100.5t12.5 108.5l170 2
q-2 -74 -16.5 -141.5t-36.5 -130.5q-21 -64 -54.5 -123.5t-74.5 -112.5l247 -266h-233l-133 145q-45 -45 -94 -75q-50 -33 -103 -56q-53 -18 -110 -28q-60 -11 -123 -11q-107 0 -193 27t-151 82q-66 57 -99 131q-32 74 -32 166q0 68 19.5 127t57.5 110q39 52 99 93
q57 41 135 73q-45 47 -78 93q-33 43 -53 81q-21 41 -31 82t-10 80q0 72 26.5 130.5t79.5 103.5q54 45 125 67q70 23 156 23t156 -21q67 -22 118 -65q54 -41 80 -96q25 -58 25 -127q0 -60 -21 -115q-20 -55 -61 -102.5t-102.5 -90.5t-145.5 -77v2zM594 854q61 27 107.5 56.5
t78 62.5t47.5 69q17 35 17 72q0 41 -15 74q-14 33 -43 57q-28 27 -65 39q-39 12 -84 12t-82 -12q-39 -12 -68 -39q-26 -24 -41.5 -57t-15.5 -74q0 -27 10 -55q9 -31 27 -60q16 -28 49 -65t78 -82v2z" />
    <glyph glyph-name="quotesingle" unicode="'" horiz-adv-x="315" 
d="M227 1436v-555h-139v555h139z" />
    <glyph glyph-name="parenleft" unicode="(" horiz-adv-x="662" 
d="M463 1544h147q-73 -125 -129.5 -241.5t-91.5 -229.5q-35 -110 -53 -219q-19 -111 -19 -219q0 -109 19 -217q18 -111 53 -221q35 -109 90 -224q56 -116 131 -241h-147q-82 118 -144.5 231t-103.5 225q-39 115 -59 226q-23 110 -23 221q0 108 23 221q20 113 59 225
q41 113 104 230q62 114 144 231v2z" />
    <glyph glyph-name="parenright" unicode=")" horiz-adv-x="662" 
d="M47 1544h152q82 -121 144.5 -235.5t100.5 -229.5q41 -112 62 -223q20 -113 20 -221q0 -109 -20.5 -219.5t-61.5 -225.5q-38 -112 -100 -225q-63 -115 -145 -233h-152q78 125 133 241q56 115 90 224q35 110 54 221q16 108 16 217q0 108 -16 217q-19 109 -54 219
q-34 111 -90 229q-55 117 -133 242v2z" />
    <glyph glyph-name="asterisk" unicode="*" horiz-adv-x="1024" 
d="M428 1518h166l-41 -336l303 145l53 -168l-327 -59l231 -246l-141 -104l-160 299l-162 -299l-143 104l233 246l-329 59l55 168l303 -145z" />
    <glyph glyph-name="plus" unicode="+" horiz-adv-x="1706" 
d="M924 1221v-541h526v-139h-526v-541h-144v541h-526v139h526v541h144z" />
    <glyph glyph-name="comma" unicode="," horiz-adv-x="588" 
d="M223 215h207l-168 -469h-166z" />
    <glyph glyph-name="hyphen" unicode="-" horiz-adv-x="690" 
d="M88 639h512v-158h-512v158z" />
    <glyph glyph-name="period" unicode="." horiz-adv-x="588" 
d="M186 217h211v-217h-211v217z" />
    <glyph glyph-name="slash" unicode="/" horiz-adv-x="567" 
d="M471 1448h145l-581 -1636h-144z" />
    <glyph glyph-name="zero" unicode="0" horiz-adv-x="1176" 
d="M588 1296q-70 -2 -123 -39q-53 -36 -88 -110q-37 -76 -55.5 -184.5t-18.5 -251.5q0 -144 18.5 -252.5t55.5 -184.5q37 -73 90 -110q53 -39 123 -39q67 0 121 39q51 37 86 110q37 76 55 185q16 106 16 248q0 145 -16 254q-18 108 -55 184q-35 76 -86 112q-54 37 -123 37v2
zM588 1448q117 -2 207 -49t151 -144q62 -94 92 -229q31 -137 31 -317q0 -181 -31 -316q-30 -137 -92 -233q-61 -94 -151 -140.5t-207 -46.5q-119 0 -209 45t-152 140q-63 96 -94 233t-31 318q0 178 31 315t94 231q62 97 152 144t209 47v2z" />
    <glyph glyph-name="one" unicode="1" horiz-adv-x="1176" 
d="M569 1419h164v-1419h-184v1206l-238 -200l-100 129z" />
    <glyph glyph-name="two" unicode="2" horiz-adv-x="1176" 
d="M356 162h652v-162h-887v166q192 188 321 329.5t195 235.5q65 92 98 172q33 78 33 144q0 49 -16 90q-19 39 -56 70.5t-84 47.5q-47 17 -106 17q-39 0 -80 -6q-41 -9 -82 -21q-39 -14 -78 -33q-41 -18 -80 -45l-20 187q49 20 98 36.5t98 28.5q52 11 101 17t98 6
q90 0 164 -27q72 -29 129 -82q55 -53 84 -123q29 -69 29 -153q0 -82 -33 -172q-35 -90 -100 -191q-68 -100 -187 -233t-291 -301v2z" />
    <glyph glyph-name="three" unicode="3" horiz-adv-x="1176" 
d="M694 743q74 -14 131 -41q58 -28 97 -73q41 -43 61 -97q21 -55 21 -120q0 -97 -37 -172q-39 -78 -115 -138q-76 -57 -176.5 -84.5t-224.5 -27.5q-52 0 -99 4q-47 2 -92 6q-45 6 -86 16q-41 11 -80 23l25 186q33 -20 69 -32q35 -15 72 -25q39 -8 80 -12q39 -6 80 -6
q84 0 152.5 18t119.5 57q53 39 80 90q25 50 25 109q0 55 -23 98q-22 43 -65 74q-45 33 -105 49q-61 14 -139 14l-154 3v153h158h16q62 0 115 14q57 17 102 48q43 32 66 75q23 41 23 92q0 50 -21.5 91t-64.5 72.5t-99 47.5q-55 17 -125 17q-35 0 -71.5 -4t-77.5 -15
q-13 -2 -25 -6l-28 -8q-27 -8 -52 -16q-26 -11 -55 -23l-8 170q47 14 94 27q47 10 92 16q43 8 86 12q43 5 84 5q107 0 193 -25q84 -27 147 -78q66 -49 96 -115q31 -67 31 -149q0 -59 -18 -111q-19 -51 -60 -94q-39 -43 -92 -72q-53 -28 -123 -45v2z" />
    <glyph glyph-name="four" unicode="4" horiz-adv-x="1176" 
d="M731 1245l-514 -772h510zM676 1419h237v-946h207v-156h-207v-317h-186v317h-674v185z" />
    <glyph glyph-name="five" unicode="5" horiz-adv-x="1176" 
d="M203 1419h780v-149h-598l-6 -393q8 0 16 2q8 0 17 2q16 2 33.5 4t31.5 4q23 4 47 4h45q111 0 197 -29q86 -28 149 -88q66 -57 97 -135q30 -80 30 -180q0 -111 -36 -197q-37 -88 -115 -153q-76 -64 -178 -95q-105 -30 -236 -30q-37 0 -74 4q-36 2 -75 10q-39 2 -76 12
q-39 11 -78 25l-2 184q33 -20 70 -33q34 -14 73 -24t80 -14q41 -7 84 -7q84 0 150 23q65 20 114 63q50 43 74 101q25 57 25 127q0 65 -23 116q-24 52 -71 91q-46 41 -109.5 59t-140.5 18q-31 0 -66 -2q-35 -4 -74 -8q-39 -6 -79 -14q-43 -8 -91 -21z" />
    <glyph glyph-name="six" unicode="6" horiz-adv-x="1176" 
d="M610 748q-57 -3 -104 -25q-49 -23 -88 -66q-37 -45 -56 -100q-20 -57 -20 -129q0 -66 20 -119q19 -55 58 -98t88 -64.5t108 -21.5q60 0 109 21.5t88 64.5t59 98q19 56 19 121q0 72 -19 131q-20 57 -57 98q-39 43 -88 66q-51 20 -117 20v3zM1028 1395l-12 -166
q-29 12 -58 22q-30 11 -61 17q-33 8 -63 12q-33 2 -68 2q-107 0 -188 -35q-84 -37 -142 -110q-57 -74 -86 -179q-31 -106 -33 -243q29 45 64 80q35 32 78 55q45 24 94 37q49 10 102 10q97 0 173.5 -29.5t136.5 -91.5q59 -61 90 -139q28 -80 28 -176q0 -107 -30 -195
q-33 -88 -99 -157q-65 -68 -147 -101q-84 -33 -184 -33q-119 0 -211.5 41t-155.5 129q-63 86 -96 209t-33 285q0 190 41 337.5t121 252t193.5 157t258.5 52.5h37q17 -2 35 -2q18 -2 37 -4q16 -2 35 -7q37 -6 72.5 -14t70.5 -18v2z" />
    <glyph glyph-name="seven" unicode="7" horiz-adv-x="1176" 
d="M115 1419h901v-174l-547 -1245h-217l559 1264h-696v155z" />
    <glyph glyph-name="eight" unicode="8" horiz-adv-x="1176" 
d="M600 803q59 28 104.5 63t75.5 72q33 39 49 80q15 39 15 78q0 45 -17 82q-16 36 -51 63q-33 29 -76 45q-45 14 -98 14q-57 0 -104 -14q-49 -16 -88 -47q-37 -31 -56 -70q-18 -41 -18 -88q0 -43 15.5 -80.5t45.5 -70.5q31 -33 82 -66t121 -63v2zM565 674q-67 -29 -119 -60
q-51 -32 -86 -67q-32 -37 -49.5 -78t-17.5 -88q0 -55 20 -100q21 -45 62 -82t94 -56q51 -18 115 -18q61 0 114 18q52 19 92.5 53.5t61.5 79.5q20 43 20 97q0 47 -18 90q-18 41 -55 78q-37 34 -94 69q-60 33 -140 62v2zM750 743q81 -30 142.5 -67t102.5 -84t62 -103
q18 -55 18 -120q0 -88 -33.5 -160t-103.5 -127q-68 -55 -156 -80q-90 -27 -200 -27q-107 0 -195 27q-88 25 -156 82q-67 55 -100 127q-35 70 -35 158q0 67 23 125q20 57 61 102q41 47 102.5 82t143.5 57q-68 29 -119 68t-88 84q-35 47 -51 100q-18 51 -18 109q0 78 30 141
q31 61 94 111q62 47 146 71q82 25 182 25q96 0 176 -23q78 -24 137 -71q60 -45 88.5 -105.5t28.5 -136.5q0 -57 -18.5 -109.5t-55.5 -99.5q-34 -47 -88 -86q-53 -41 -120 -72v2z" />
    <glyph glyph-name="nine" unicode="9" horiz-adv-x="1176" 
d="M856 993q0 66 -18 121q-19 53 -56 94q-39 41 -86 61.5t-106 20.5q-62 0 -111 -20q-49 -23 -90 -70q-39 -45 -59.5 -102.5t-20.5 -126.5q0 -66 21 -119q18 -55 55 -96q39 -41 88 -62q49 -20 109 -20q61 0 112 22q49 21 88 64q37 43 55.5 101.5t18.5 129.5v2zM170 29
l14 166q29 -17 60 -27q28 -12 59 -21q33 -6 65.5 -10t65.5 -4q109 0 191 37t139 111q57 71 88 178q31 104 33 241q-29 -45 -64 -77q-37 -35 -80 -58q-45 -24 -94 -37q-49 -12 -102 -12q-94 0 -172 31t-137 92q-60 63 -89 143q-30 78 -30 172q0 109 33 197q32 86 97.5 155.5
t149.5 104.5q82 35 183 35q118 0 211 -43q90 -45 153 -131q66 -86 96 -211q31 -125 31 -289q0 -188 -39 -334q-41 -147 -121 -250q-82 -104 -194 -153q-115 -49 -260 -49h-35q-19 0 -37 2t-35 4q-18 0 -37 4q-34 4 -69 12q-37 6 -74 19v2z" />
    <glyph glyph-name="colon" unicode=":" horiz-adv-x="588" 
d="M186 217h211v-217h-211v217zM186 1034h211v-221h-211v221z" />
    <glyph glyph-name="semicolon" unicode=";" horiz-adv-x="588" 
d="M213 215h211l-168 -469h-168zM209 1026h211v-217h-211v217z" />
    <glyph glyph-name="less" unicode="&#x3c;" horiz-adv-x="1706" 
d="M1442 1006l-971 -398l971 -393v-154l-1180 486v129l1180 481v-151z" />
    <glyph glyph-name="equal" unicode="=" horiz-adv-x="1706" 
d="M1450 479v-139h-1196v139h1196zM1450 879v-142h-1196v142h1196z" />
    <glyph glyph-name="greater" unicode="&#x3e;" horiz-adv-x="1706" 
d="M1442 676v-129l-1180 -486v154l973 393l-973 398v151z" />
    <glyph glyph-name="question" unicode="?" horiz-adv-x="1053" 
d="M344 215h211v-215h-211v215zM537 381h-166v4q-2 2 -2 6v4v2v15v16q0 37 6 70q4 32 14 63q12 31 33 66q18 32 47 67q10 17 29 37q16 21 39 47q71 86 108 158q37 70 37 125q0 49 -18 90q-21 39 -58 70q-39 30 -88 47q-49 14 -110 14q-31 0 -62 -2q-31 -4 -65 -12
q-33 -8 -68 -21q-37 -12 -76 -28l-2 170q41 10 80 20q37 8 74 14q37 9 73 13q37 2 70 2q103 0 182 -25q78 -24 138 -72q59 -47 88 -110q28 -66 28 -148q0 -77 -53 -180.5t-162 -232.5q-12 -15 -22 -27t-17 -20q-18 -23 -32 -48q-17 -26 -27 -55q-8 -26 -12 -55
q-6 -31 -6 -62v-22z" />
    <glyph glyph-name="at" unicode="@" horiz-adv-x="2048" 
d="M1282 852l57 117h134l-148 -578q-2 -10 -2 -16q-2 -8 -2 -17q-2 -8 -2 -14v-12q0 -23 6 -41.5t18 -30.5q13 -10 31 -16q19 -6 43 -6q25 0 50.5 6t52.5 20q28 12 55 33q24 18 51 41q41 39 74 86q31 47 51 102q23 56 35 115q10 57 10 119q0 129 -47 233q-47 105 -143 187
q-95 80 -220 120q-124 39 -278 39q-68 0 -129 -6t-119 -20q-55 -15 -108 -35q-54 -23 -103 -51q-94 -58 -168 -131q-73 -76 -127 -170q-51 -92 -78 -195q-26 -102 -26 -215q0 -88 16 -164q15 -78 45 -143q31 -66 80 -123q47 -57 113 -102q49 -39 108 -68q60 -31 127 -51
q70 -23 142 -31q69 -10 145 -10q84 0 168 12q82 12 162 37q80 23 153 57q72 35 140 78l55 -78q-76 -55 -154 -96q-77 -43 -161 -70q-82 -28 -170 -43q-89 -14 -181 -14q-94 0 -180 12q-88 13 -168 35q-78 25 -147 60q-72 34 -131 82q-76 57 -133 124q-60 68 -99 146
q-37 78 -55 166q-21 88 -21 186q0 84 15 162q12 78 39 151q26 74 63 141.5t86 129.5q74 90 162 158q88 65 190 110q103 47 218 70q112 22 237 22q82 0 160 -10q78 -12 151 -35q74 -20 137.5 -53t114.5 -74q66 -49 117 -106q49 -58 82 -123q35 -66 51 -135q17 -72 17 -150
q0 -88 -17 -166q-16 -78 -47 -147q-33 -70 -78 -129q-47 -60 -106 -109q-35 -26 -72 -47q-37 -20 -78 -35q-41 -14 -82 -20q-43 -8 -86 -8q-49 0 -86 10q-37 8 -63 29q-25 20 -37 48.5t-12 67.5v23q-27 -47 -60 -80t-69 -55q-37 -21 -80 -31t-92 -10q-76 0 -134 20
q-59 21 -100 64t-61 104q-21 62 -21 144q0 116 35 214.5t104 178.5q70 80 154 121q84 38 184 38q43 0 80 -8q37 -10 66 -30q31 -19 55 -45q25 -29 41 -68v2zM1190 473l57 238q-8 41 -24.5 74.5t-43 58t-58 37t-70.5 12.5q-70 0 -127 -33q-60 -33 -107 -98q-45 -64 -67 -144
q-25 -79 -25 -176q0 -51 11.5 -92t35.5 -69q25 -27 59 -41q33 -17 78 -17q49 0 95 19q43 18 81 51q39 35 66 80q25 45 39 98v2z" />
    <glyph glyph-name="A" unicode="A" horiz-adv-x="1352" 
d="M690 1245l-280 -723h555zM573 1419h242l557 -1419h-215l-135 365h-678l-135 -365h-203z" />
    <glyph glyph-name="B" unicode="B" horiz-adv-x="1178" 
d="M373 657v-495h149h21q75 0 133 14q63 14 108 47t68 80q20 45 20 109q0 59 -20 106q-21 45 -61 76q-39 31 -101 47q-61 14 -141 14zM373 1266v-455h143h16q68 0 121 14q60 15 101 44.5t61 72.5q21 43 21 98q0 54 -19 97q-20 41 -59 69q-39 29 -94 43q-56 15 -127 15z
M174 1419h381q117 -2 207 -24q88 -25 151 -72q64 -45 94.5 -111.5t30.5 -150.5q0 -60 -16 -109q-16 -51 -49 -92q-33 -39 -82 -67q-49 -31 -115 -48q76 -18 131 -49q56 -30 94 -78q41 -45 59.5 -100t18.5 -125q0 -94 -32 -166q-35 -73 -103 -127q-67 -51 -164 -75
q-96 -25 -223 -25h-383v1419z" />
    <glyph glyph-name="C" unicode="C" horiz-adv-x="1247" 
d="M1194 1368l-6 -172q-41 16 -80 29q-41 12 -82 20q-39 10 -78 15q-41 4 -82 4q-127 0 -227 -37q-102 -39 -178 -113q-76 -76 -113 -176q-39 -100 -39 -227q0 -129 39 -230q37 -102 113 -176q74 -72 176 -108.5t231 -36.5q41 0 82 4q39 2 78 10q41 8 80 21q37 10 76 24
l6 -176q-39 -12 -78 -20q-39 -11 -82 -17q-41 -6 -86 -6q-45 -2 -92 -2q-174 0 -311.5 45t-237.5 139q-100 97 -151.5 226t-51.5 290q0 166 54 299q51 131 153 230q103 96 240 145t311 49q47 0 92 -2q45 -4 86 -10q43 -8 82 -16q39 -11 76 -27v2z" />
    <glyph glyph-name="D" unicode="D" horiz-adv-x="1405" 
d="M375 1262v-1096h162h12q127 0 225 35q103 35 176 106q74 72 113 174q37 103 37 234q0 133 -35 235q-37 101 -109 170q-69 70 -174 105q-104 35 -243 35zM174 1419h334q199 -2 350 -45q150 -45 250 -135q100 -88 152 -221q49 -135 49 -313q0 -170 -52 -302
q-53 -131 -157.5 -223t-251.5 -135q-150 -45 -344 -45h-330v1419z" />
    <glyph glyph-name="E" unicode="E" horiz-adv-x="1096" 
d="M174 1419h770v-151h-569v-453h538v-160h-538v-491h590v-164h-791v1419z" />
    <glyph glyph-name="F" unicode="F" horiz-adv-x="977" 
d="M174 1419h735v-153h-534v-457h514v-160h-514v-649h-201v1419z" />
    <glyph glyph-name="G" unicode="G" horiz-adv-x="1454" 
d="M1264 1358l-29 -168q-41 18 -84 35q-43 14 -86 24q-45 11 -90 17q-45 4 -92 4q-129 0 -232 -39q-102 -39 -180 -117t-117 -180q-39 -105 -39 -232q0 -124 39 -225.5t117 -177.5t180 -113q103 -36 234 -36q28 0 59 2q29 2 55 8q29 4 55.5 12t53.5 18v435h-297v153h492
v-710q-50 -21 -101 -33q-53 -15 -108 -25q-54 -8 -111 -10q-57 -4 -117 -4q-174 0 -311 47q-139 45 -242 141q-102 97 -153 228q-51 129 -51 295q0 163 51 294q51 132 155 228q103 98 242 147q139 47 313 47q52 0 101 -2q49 -4 96 -14q49 -8 98 -21.5t99 -29.5v2z" />
    <glyph glyph-name="H" unicode="H" horiz-adv-x="1395" 
d="M174 1419h201v-602h645v602h199v-1419h-199v655h-645v-655h-201v1419z" />
    <glyph glyph-name="I" unicode="I" horiz-adv-x="551" 
d="M174 1419h201v-1419h-201v1419z" />
    <glyph glyph-name="J" unicode="J" horiz-adv-x="731" 
d="M354 1419h201v-944q0 -127 -20 -219q-23 -92 -68 -152q-45 -59 -117 -86q-71 -28 -168 -28h-43q-22 0 -45 4q-6 0 -12 2q-8 0 -16 2q-15 2 -29 4q-14 0 -29 2v178q17 -8 33 -10q16 -4 31 -8q10 -2 20 -2q10 -2 21 -4h10h10q60 0 103 20q40 21 67 62q27 43 39 112
q12 70 12 164v903z" />
    <glyph glyph-name="K" unicode="K" horiz-adv-x="1206" 
d="M174 1419h201v-622l588 622h237l-639 -661l692 -758h-256l-622 692v-692h-201v1419z" />
    <glyph glyph-name="L" unicode="L" horiz-adv-x="950" 
d="M174 1419h201v-1253h565v-166h-766v1419z" />
    <glyph glyph-name="M" unicode="M" horiz-adv-x="1874" 
d="M174 1419h301l420 -1102q8 -22 14 -43q6 -20 11 -43q4 -22 8 -47q2 -24 4 -49q4 33 8 62q2 26 6 50.5t10 43.5q5 16 9 28l436 1100h297v-1419h-195v1114q0 25 2 53q0 27 2 54q4 28 9 57q2 27 6 55q-4 -14 -6 -26l-9 -27q-4 -14 -6 -27l-8 -24q-8 -25 -14 -47
q-9 -23 -19 -43l-448 -1139h-176l-451 1157q-4 12 -8 31q-6 16 -12.5 38.5t-12.5 49.5q-6 24 -12 53q0 -24 2 -45q0 -22 2 -41q2 -18 4 -35v-30q2 -27 2 -43v-27v-1108h-176v1419z" />
    <glyph glyph-name="N" unicode="N" horiz-adv-x="1444" 
d="M174 1419h252l616 -1106q7 -14 17 -30q8 -19 16 -45q10 -25 21 -54q8 -28 16 -61q-6 39 -10 73.5t-8 65.5t-7 60q-2 26 -2 49v1048h185v-1419h-246l-629 1114q-6 8 -12 27q-6 16 -16 39q-5 16 -11 37q-8 18 -14 40q-2 11 -4 23q-4 12 -8 25q8 -58 14 -101q4 -45 6 -76
q4 -30 6 -53v-37v-1038h-182v1419z" />
    <glyph glyph-name="O" unicode="O" horiz-adv-x="1499" 
d="M750 1288q-101 -2 -181 -41t-139 -119q-59 -77 -90 -182q-31 -104 -31 -235t31 -236.5t90 -183.5t139 -117q80 -41 181 -41q98 0 178 41q80 39 141 117q59 78 90 183.5t31 236.5t-31 235q-31 105 -92 182q-59 80 -139 119t-178 39v2zM750 1448q149 -2 266 -51
q117 -51 205 -150q86 -98 131 -233q43 -135 43 -305q0 -172 -43 -308q-45 -135 -131 -233q-86 -100 -203 -148q-119 -47 -268 -47q-150 0 -267 47q-118 48 -207 148q-86 98 -129 233q-45 136 -45 308q0 170 45 305q43 135 129 233q89 99 207 150q117 49 267 49v2z" />
    <glyph glyph-name="P" unicode="P" horiz-adv-x="1083" 
d="M375 1266v-533h129h16q68 0 123 17q59 18 102 53t64 86q20 49 20 115q0 61 -18 110q-18 47 -59 80q-39 35 -95 53q-55 17 -127 17zM174 1419h354q127 -2 224 -26q94 -27 157 -80q66 -51 97 -129q30 -80 30 -187q0 -100 -32 -176q-35 -78 -103 -133q-67 -55 -162.5 -82.5
t-220.5 -27.5l-143 2v-580h-201v1419z" />
    <glyph glyph-name="Q" unicode="Q" horiz-adv-x="1499" 
d="M1024 29l313 -299h-241l-260 252q-15 -2 -25 -2q-10 -3 -20 -3q-9 -2 -17 -2h-16q-154 0 -275 47.5t-207 145.5q-86 96 -129 231q-45 136 -45 310q0 170 45 305q43 135 129 233q89 99 207 150q117 49 267 49q149 0 266 -49q117 -51 205 -150q86 -98 131 -233
q43 -135 43 -305q0 -125 -23.5 -230.5t-71.5 -191.5q-45 -84 -114.5 -148.5t-161.5 -111.5v2zM750 1288q-101 -2 -181 -41t-139 -119q-59 -77 -90 -182q-31 -104 -31 -235t31 -236.5t90 -183.5t139 -117q80 -41 181 -41q98 0 178 41q80 39 141 117q59 78 90 183.5t31 236.5
t-31 235q-31 105 -92 182q-59 80 -139 119t-178 39v2z" />
    <glyph glyph-name="R" unicode="R" horiz-adv-x="1167" 
d="M373 1268v-486h151h17q65 0 118 15q58 16 99 49q43 35 65 80q21 43 21 100q0 61 -19 109q-20 45 -61 73q-39 29 -100 43q-62 15 -146 15zM174 1419h383q123 -2 215 -24q90 -23 151.5 -68t92.5 -113.5t31 -158.5q0 -68 -19 -123q-20 -58 -61 -103q-39 -45 -97 -73
q-59 -31 -135 -47q33 -9 60 -23q24 -14 45 -37q20 -20 43 -55q20 -35 41 -86l215 -508h-213l-189 465q-18 43 -41 76q-22 30 -51 49q-27 18 -65 28q-41 9 -95 9l-112 2v-629h-199v1419z" />
    <glyph glyph-name="S" unicode="S" horiz-adv-x="1073" 
d="M907 1382l-18 -174q-33 15 -68 27t-69 20q-33 9 -70 13t-76 4q-63 0 -112 -12q-52 -13 -88 -37q-37 -23 -54.5 -56.5t-17.5 -74.5q0 -33 12 -62q12 -31 37 -59q23 -27 76 -62q53 -37 135 -82q104 -57 178 -110t113 -101q41 -47 61 -100q19 -55 19 -117q0 -90 -33 -163
q-35 -74 -101 -134q-65 -57 -151 -84q-86 -26 -188 -26q-52 0 -99 4q-49 2 -96 6q-45 10 -86 23q-43 10 -84 24l18 195q45 -25 88 -41q43 -19 82 -31q41 -10 82 -14q39 -6 78 -6q64 0 115 14q49 14 88 41q37 29 57 65q19 37 19 82q0 72 -74 150q-76 78 -225 164
q-27 14 -45.5 25.5t-30.5 19.5q-57 32 -103 73q-45 39 -77 86q-33 48 -49.5 97t-16.5 98q0 84 33 150q31 65 94 114q64 49 150 74t194 25q41 0 80 -3.5t78 -9.5t76 -14q36 -10 69 -23v2z" />
    <glyph glyph-name="T" unicode="T" horiz-adv-x="1030" 
d="M16 1419h998v-166h-400v-1253h-198v1253h-400v166z" />
    <glyph glyph-name="U" unicode="U" horiz-adv-x="1411" 
d="M164 1419h196v-835q0 -117 23 -201q20 -84 61 -139.5t105 -81.5q63 -29 147 -29q86 0 152 31q63 31 108 88q43 59 66 147q20 86 20 199v821h187v-823q0 -158 -33 -274q-35 -117 -102 -195q-66 -78 -166 -115q-103 -39 -238 -39q-129 0 -227 37t-166 113q-68 78 -100 190
q-33 113 -33 262v844z" />
    <glyph glyph-name="V" unicode="V" horiz-adv-x="1292" 
d="M25 1419h211l415 -1231l432 1231h201l-522 -1419h-234z" />
    <glyph glyph-name="W" unicode="W" horiz-adv-x="1935" 
d="M25 1419h202l283 -1134q2 -11 6 -27q2 -16 4 -39q4 -20 8 -49q2 -29 7 -64q0 13 2 27q0 12 2 25q2 10 4 22v21q4 22 8 41q2 18 4 32l293 1145h258l291 -1145l8 -32q2 -19 4 -41q4 -21 6 -45.5t4 -49.5q4 27 7.5 51.5t5.5 47.5l4 20q0 8 2 17q0 8 2 14q0 6 2 10l293 1153
h186l-383 -1419h-250l-299 1159q-2 4 -2 12q-2 7 -2 15q-2 8 -2 18q-2 10 -4 21q-2 20 -4 42.5t-4 49.5q-4 -43 -8 -72q-5 -31 -7 -47v-14q-2 -8 -4 -13.5t-2 -9.5q-2 -4 -2 -6l-297 -1155h-254z" />
    <glyph glyph-name="X" unicode="X" horiz-adv-x="1290" 
d="M66 1419h235l356 -559l355 559h219l-463 -676l508 -743h-240l-397 623l-403 -623h-224l514 741z" />
    <glyph glyph-name="Y" unicode="Y" horiz-adv-x="1180" 
d="M-33 1419h234l393 -671l399 671h217l-524 -831v-588h-201v584z" />
    <glyph glyph-name="Z" unicode="Z" horiz-adv-x="1100" 
d="M86 1419h924v-176l-740 -1079h752v-164h-956v184l733 1078h-713v157z" />
    <glyph glyph-name="bracketleft" unicode="[" horiz-adv-x="668" 
d="M186 1542h363v-129h-201v-1554h201v-127h-363v1810z" />
    <glyph glyph-name="backslash" unicode="\" horiz-adv-x="567" 
d="M-47 1448h141l584 -1636h-148z" />
    <glyph glyph-name="bracketright" unicode="]" horiz-adv-x="668" 
d="M117 1542h360v-1810h-360v127h198v1554h-198v129z" />
    <glyph glyph-name="asciicircum" unicode="^" horiz-adv-x="2048" 
d="M1114 1456l510 -557h-178l-422 422l-426 -422h-178l510 557h184z" />
    <glyph glyph-name="underscore" unicode="_" horiz-adv-x="1024" 
d="M1024 -340v-141h-1024v141h1024z" />
    <glyph glyph-name="grave" unicode="`" horiz-adv-x="1024" 
d="M256 1520h188l205 -357h-106z" />
    <glyph glyph-name="a" unicode="a" horiz-adv-x="1079" 
d="M627 508q-86 -2 -152 -14q-65 -15 -113 -43q-45 -27 -67 -66q-25 -39 -25 -90q0 -39 15 -70q12 -30 38.5 -55t61.5 -37q33 -12 74 -12q65 0 119 20q51 21 90 64q41 41 61 98q19 55 19 125v80h-121zM932 625v-625h-170v170q-31 -47 -68 -82q-37 -37 -82 -59
q-43 -23 -94 -31q-51 -10 -108 -10q-74 0 -134 18q-59 19 -104 62q-45 41 -68 96q-22 55 -22 123q0 84 35 147q33 64 100 109q70 45 168 67q98 23 227 23l136 2v18q0 58 -17 107q-16 47 -51 80q-33 32 -80 48.5t-106 16.5q-33 0 -68 -4q-37 -6 -72 -16q-37 -11 -73.5 -27
t-73.5 -39l-2 160q39 16 80 31q39 14 82 22q41 10 88 15q45 4 94 4q96 0 168 -27q69 -29 119 -82q47 -51 71 -131q25 -82 25 -188v2z" />
    <glyph glyph-name="b" unicode="b" horiz-adv-x="1221" 
d="M651 903q-67 -2 -121 -26q-53 -25 -94 -78q-39 -51 -59 -121q-21 -72 -21 -162q0 -86 21 -156q20 -69 59 -122q41 -52 93.5 -78.5t115.5 -26.5q64 0 115 27q49 24 86 76q39 51 57 120q19 68 19 154q0 90 -19 164q-18 71 -55 123q-37 53 -86 80q-49 24 -111 24v2z
M168 1530h188v-668q29 45 66 82q35 35 78 57q41 23 92 35q49 13 106 13q97 0 174 -35q76 -37 134 -109q57 -69 85.5 -164.5t28.5 -214.5q0 -120 -28 -219q-29 -98 -88.5 -174t-135.5 -110q-75 -37 -170 -37q-57 0 -108 12q-53 12 -98.5 41t-81.5 70q-39 41 -70 98v-207h-172
v1530z" />
    <glyph glyph-name="c" unicode="c" horiz-adv-x="950" 
d="M885 991l-17 -164q-22 13 -47 23q-26 8 -55 16q-29 6 -57 11q-31 4 -62 4q-78 0 -141 -25q-66 -27 -115 -78t-74 -116q-24 -66 -24 -150q0 -82 24 -150q23 -67 70 -118t113 -76q63 -27 141 -27q29 0 59 4q29 5 58 11q28 8 59 20q31 10 62 25l10 -166q-33 -15 -66 -23
q-32 -10 -67 -12q-35 -4 -70 -6q-37 -4 -74 -4q-118 0 -213 35q-94 32 -166 104q-69 72 -106 168q-37 94 -37 213q0 117 37 213q37 94 110.5 166t172 107.5t219.5 35.5q35 0 68.5 -2t66.5 -8q31 -4 61 -12q31 -9 60 -21v2z" />
    <glyph glyph-name="d" unicode="d" horiz-adv-x="1221" 
d="M565 903q-61 -2 -110 -26q-49 -27 -86 -80q-37 -52 -54 -121q-18 -72 -18 -162q0 -88 18 -156q19 -69 56 -122q37 -52 88 -76q49 -27 110 -27q66 0 119 26.5t92 78.5q39 53 60 122q18 68 18 154q0 90 -18.5 162t-59.5 123q-39 53 -92 77.5t-123 24.5v2zM858 1530h193
v-1530h-174v209q-31 -59 -68 -100q-37 -43 -84 -72q-45 -27 -96 -39q-54 -12 -115 -12q-90 0 -166 37q-76 34 -135 110q-57 78 -88 176q-31 99 -31 217q0 119 31 215q29 95 86 166q59 72 137 109q76 35 170 35q57 0 107 -13q49 -12 92 -37q43 -22 80 -57q34 -37 61 -84v670z
" />
    <glyph glyph-name="e" unicode="e" horiz-adv-x="1053" 
d="M1004 547v-78h-730q7 -84 33 -147q27 -66 74 -113q47 -45 111 -68q63 -22 145 -22q35 0 72 6q34 4 67 12q35 10 72 25q37 12 74 33v-162q-33 -17 -70 -25q-39 -10 -80 -18q-39 -6 -84 -10.5t-92 -4.5q-119 0 -211 35t-160 109q-67 74 -100 176q-35 100 -35 225
q0 121 35 217q33 94 98 168q66 72 154 109q86 37 192 37q103 0 183 -33q77 -35 135 -103q59 -67 88 -159q29 -94 29 -211v2zM823 596q-4 76 -22 135q-21 57 -56 98q-34 41 -79 62q-48 20 -107 20q-57 0 -104 -20q-47 -23 -84 -64q-39 -43 -60 -100q-22 -59 -30 -133z" />
    <glyph glyph-name="f" unicode="f" horiz-adv-x="723" 
d="M715 1532l-6 -156q-17 4 -31 8q-14 5 -27 7q-10 4 -20 6h-23q-39 0 -69.5 -13.5t-49.5 -40.5q-20 -26 -28 -67q-10 -43 -10 -98v-152h237v-143h-237v-883h-191v883h-215v143h215v164q0 86 23 153q20 66 61 111q41 47 102 70q62 20 144 20h31q14 0 28 -4q17 -2 33 -4
t33 -6v2z" />
    <glyph glyph-name="g" unicode="g" horiz-adv-x="1210" 
d="M571 901q-61 -2 -110 -27q-49 -24 -86 -75t-56.5 -119t-19.5 -156q0 -86 19.5 -153.5t56.5 -118.5q39 -51 88 -76q49 -24 110 -24q66 0 119 24q51 25 90 76t60 119q18 65 18 147q0 90 -18.5 160t-57.5 121t-92 75q-53 25 -121 25v2zM881 844v182h174v-909
q0 -140 -31 -246q-33 -109 -98 -178q-64 -72 -160 -107t-223 -35q-45 0 -90 4.5t-91 12.5q-43 8 -83 20q-41 13 -80 29l14 170q41 -20 80 -35.5t76 -25.5q39 -11 74.5 -17t68.5 -6q86 0 154 27q65 24 112 73q47 50 69.5 120.5t22.5 158.5v125q-30 -53 -67 -92t-80 -66
q-45 -26 -94 -37.5t-103 -11.5q-94 0 -172 35t-137 104q-57 72 -88 166t-31 209q0 123 31 221q29 99 88 170q59 72 137 109t174 37q60 0 111 -13.5t96 -40.5q45 -26 82 -65q35 -39 64 -90v2z" />
    <glyph glyph-name="h" unicode="h" horiz-adv-x="1200" 
d="M170 1530h188v-670q29 45 64 82t78 59q43 25 94 37q49 13 106 13q88 0 154 -27q66 -29 111 -84t67 -135q23 -80 23 -187v-618h-193v578q0 75 -12 135q-14 57 -43 96q-27 39 -70 58.5t-102 19.5q-64 0 -115 -25q-51 -24 -88 -74q-37 -47 -55.5 -114.5t-18.5 -153.5v-520
h-188v1530z" />
    <glyph glyph-name="i" unicode="i" horiz-adv-x="512" 
d="M160 1026h190v-1026h-190v1026zM160 1499h190v-190h-190v190z" />
    <glyph glyph-name="j" unicode="j" horiz-adv-x="512" 
d="M160 1026h190v-1073q0 -107 -16.5 -182.5t-50.5 -120.5q-33 -47 -88 -70q-58 -22 -136 -22h-28q-17 0 -31 2t-29.5 10t-29.5 22l8 121q12 -2 22 -2q9 -2 19 -4q6 -2 10 -2t8 -2h6h4q39 0 68 14q27 15 41 43q16 27 24.5 78t8.5 123v1065zM160 1499h190v-190h-190v190z" />
    <glyph glyph-name="k" unicode="k" horiz-adv-x="1026" 
d="M170 1530h188v-909l408 405h221l-457 -436l517 -590h-240l-449 539v-539h-188v1530z" />
    <glyph glyph-name="l" unicode="l" horiz-adv-x="512" 
d="M160 1530h190v-1530h-190v1530z" />
    <glyph glyph-name="m" unicode="m" horiz-adv-x="1808" 
d="M985 825q29 54 66 97q36 41 79 69q46 29 97 43q49 15 106 15q82 0 144 -27q61 -29 102 -84q43 -55 63 -135q21 -80 21 -185v-618h-188v578q0 75 -13 133q-12 57 -37 94q-24 37 -61 57q-39 19 -88 19q-64 0 -111 -25q-49 -25 -84 -72q-34 -47 -51 -112q-18 -68 -18 -152
v-520h-193v578q0 77 -12 137q-12 57 -37 92q-22 37 -61 55q-41 19 -97 19q-57 0 -102 -25q-47 -25 -82 -74q-35 -47 -53.5 -112.5t-18.5 -149.5v-520h-186v1026h172v-188q29 51 63.5 90t79.5 65q43 29 92.5 42.5t104.5 13.5t102 -15q45 -14 84 -43q39 -28 68 -69
q29 -43 49 -99v2z" />
    <glyph glyph-name="n" unicode="n" horiz-adv-x="1200" 
d="M1055 621v-621h-193v578q0 75 -12 135q-14 57 -43 96q-27 39 -70 58.5t-102 19.5q-64 0 -115 -25q-51 -24 -88 -74q-37 -47 -55.5 -114.5t-18.5 -153.5v-520h-188v1026h172v-188q29 51 66 92q36 39 81 65q48 29 101 43q51 13 110 13q88 0 154 -27q66 -29 111 -84t67 -135
q23 -80 23 -187v3z" />
    <glyph glyph-name="o" unicode="o" horiz-adv-x="1200" 
d="M600 905q-68 -2 -123 -28.5t-98 -80t-64 -122.5q-20 -72 -20 -162q0 -86 20 -156q21 -71 64 -125q43 -53 98 -79.5t123 -26.5q72 0 127 26.5t96 77.5q43 54 63.5 124.5t20.5 158.5q0 90 -20.5 161.5t-63.5 123.5q-41 53 -96 79.5t-127 26.5v2zM598 1053q121 -2 213 -39
t162 -109q67 -71 102 -170q33 -98 33 -225q0 -123 -33 -221q-35 -99 -104 -172q-68 -72 -160 -107q-94 -35 -213 -35q-117 0 -209 35t-162 107q-67 71 -102 169.5t-35 223.5q0 127 35 225q35 99 102 170q70 72 162 109t209 37v2z" />
    <glyph glyph-name="p" unicode="p" horiz-adv-x="1221" 
d="M358 166v-592h-188v1452h170v-199q31 54 70 97q39 41 84 69q47 29 100 43q53 15 111 15q94 0 172 -35q75 -37 133 -109q59 -69 88 -164q28 -94 28 -211q0 -124 -28.5 -225.5t-87.5 -175.5q-60 -76 -138 -111q-79 -34 -178 -34q-53 0 -102 10t-90 31q-43 22 -78 57
q-37 35 -66 80v2zM928 520q0 88 -19 158q-18 67 -55 117q-37 51 -86 75q-51 25 -117 25q-65 0 -116 -25q-54 -24 -95 -77q-41 -52 -61.5 -121.5t-20.5 -155.5q0 -88 21 -158q18 -71 57 -125q39 -51 91.5 -77.5t115.5 -26.5q66 0 117 26.5t90 77.5q39 54 59 125q19 72 19 160
v2z" />
    <glyph glyph-name="q" unicode="q" horiz-adv-x="1221" 
d="M555 897q-57 -2 -104 -27q-50 -24 -86 -77q-37 -52 -54.5 -119.5t-17.5 -153.5q0 -90 18 -162q19 -71 56 -125q39 -51 92 -77q51 -27 114 -27q66 0 117 26.5t90 77.5q39 54 58 123q18 70 18 158q0 90 -18 160q-21 69 -62 121q-39 51 -94 75q-55 25 -127 25v2zM877 827
v199h174v-1452h-193v592q-27 -47 -63 -80q-37 -35 -80 -59q-43 -21 -92.5 -31t-104.5 -10q-96 0 -172 34q-78 35 -137 111t-88 178q-31 101 -31 228q0 114 31 208q31 95 88 164q59 72 137 107q76 35 170 35q59 0 113 -15q51 -14 96 -43q45 -28 84 -69q37 -43 68 -99v2z" />
    <glyph glyph-name="r" unicode="r" horiz-adv-x="737" 
d="M719 1038l-6 -182q-13 2 -23 4l-20 4q-8 2 -17 2h-20q-66 0 -117 -22.5t-86 -69.5q-35 -45 -53.5 -110.5t-18.5 -151.5v-512h-188v1026h170v-211q22 55 53 98q29 43 68 72t84 45q43 14 94 14h8h8q7 -2 11 -2h10q10 -2 20 -2q11 -2 23 -4v2z" />
    <glyph glyph-name="s" unicode="s" horiz-adv-x="858" 
d="M739 999l-8 -153q-31 12 -61 22q-33 11 -66 19t-65 12q-33 2 -68 2q-39 0 -70 -6q-30 -8 -55 -25q-22 -16 -35 -36q-12 -21 -12 -50q0 -22 10 -43.5t29 -40.5q20 -18 61 -41q39 -24 101 -53q80 -37 137 -74q55 -36 86 -71q29 -35 45 -78q14 -43 14 -92q0 -70 -26 -125
q-29 -57 -86 -98q-56 -41 -131 -60q-76 -18 -172 -18q-35 0 -70 4q-35 2 -70 6q-32 4 -65 14q-35 9 -68 23l6 162q35 -21 72 -33q35 -12 68 -23q34 -8 69 -12q33 -6 66 -6q47 0 86 10q37 10 63 31q29 20 43 49q13 27 13 61q0 25 -9 48q-8 22 -24.5 40.5t-54.5 43.5
q-39 22 -101 53q-80 39 -135 75.5t-86 69.5q-31 35 -45 76q-14 39 -14 84q0 61 25.5 110.5t76.5 86t118.5 55t151.5 18.5q31 0 64 -2q31 -2 63 -6q33 -4 66 -12q31 -8 63 -19v2z" />
    <glyph glyph-name="t" unicode="t" horiz-adv-x="750" 
d="M440 1346v-320h246v-143h-246v-535q0 -61 11 -102q8 -43 24 -70q19 -24 48.5 -37.5t68.5 -13.5q10 0 21.5 2t23.5 4q12 4 29 8q14 4 28 11l2 -150q-8 -2 -18 -2q-10 -2 -19.5 -4t-17.5 -2l-20 -4h-19q-10 -2 -20 -2q-11 -2 -19 -2h-20q-78 0 -133 18q-58 18 -91 57
q-32 41 -49.5 109t-17.5 162v553h-209v143h213v254z" />
    <glyph glyph-name="u" unicode="u" horiz-adv-x="1200" 
d="M145 1026h193v-567q0 -82 14 -140q15 -59 41 -98q29 -37 72 -55q41 -19 98 -19q68 0 119 27q51 25 86 76q35 53 53 127q19 74 19 174v475h188v-1026h-174v199q-27 -56 -63.5 -97t-79.5 -67q-45 -27 -97.5 -37t-113.5 -10q-88 0 -154 24q-65 25 -110 80q-46 53 -68 135
q-23 80 -23 187v612z" />
    <glyph glyph-name="v" unicode="v" horiz-adv-x="977" 
d="M29 1026h202l271 -856l278 856h189l-367 -1026h-219z" />
    <glyph glyph-name="w" unicode="w" horiz-adv-x="1661" 
d="M33 1026h205l217 -780q0 -4 2 -17.5t4 -35.5q4 -21 8 -41q2 -23 4 -41q6 34 10 59q2 23 4 37q5 12 7 20q0 9 2 13l229 786h238l229 -778q2 -6 4 -17.5t4 -29.5q4 -19 8 -41q2 -23 4 -49q5 24 7 44.5t4 34.5q4 17 8 29q2 12 4 23l227 784h189l-336 -1026h-217l-244 813v8
q-2 4 -4 10q-2 7 -2 13q-2 6 -2 14q-2 16 -4 34.5t-4 41.5q-2 -21 -4 -39q-5 -18 -7 -35q-2 -16 -4 -29q-4 -14 -8 -24l-242 -807h-217z" />
    <glyph glyph-name="x" unicode="x" horiz-adv-x="944" 
d="M47 1026h232l219 -364l225 364h211l-330 -477l357 -549h-228l-252 420l-256 -420h-213l363 543z" />
    <glyph glyph-name="y" unicode="y" horiz-adv-x="975" 
d="M25 1026h202l281 -844l274 844h195l-410 -1128q-32 -95 -69 -160q-37 -68 -80 -107q-41 -39 -94.5 -57t-118.5 -18h-29q-16 0 -33 2q-6 0 -10 2q-6 0 -12 2q-10 2 -21 4q-10 0 -20 4l14 158q15 -4 27 -7l20 -4q11 -2 23 -2q10 -2 20 -2q35 0 66 14.5t57 43.5
q27 28 52.5 76.5t52.5 113.5z" />
    <glyph glyph-name="z" unicode="z" horiz-adv-x="961" 
d="M98 1026h772v-160l-585 -716h585v-150h-794v164l577 715h-555v147z" />
    <glyph glyph-name="braceleft" unicode="{" horiz-adv-x="1024" 
d="M864 1325h-41q-59 -2 -98 -12q-41 -10 -61.5 -33t-30.5 -68q-10 -47 -10 -116v-242q0 -82 -11 -137q-12 -58 -34 -92q-23 -33 -62 -58q-39 -24 -94 -41q55 -14 96 -37q39 -24 60 -59q22 -33 33.5 -90t11.5 -137v-240q0 -69 10 -117q10 -47 31 -67q20 -23 61 -33t100 -10
h39v-150h-43q-53 0 -94 4q-43 2 -74 9q-30 6 -55 16q-27 8 -47 20q-27 17 -47 41q-21 25 -31 58q-12 30 -16 84q-6 51 -6 127v241q0 74 -13.5 126.5t-42.5 82.5q-26 31 -71 47q-48 15 -113 15h-4h-6q-2 -2 -4 -2h-9h-12h-8v149q4 -2 10 -2h12h9h4q4 -2 6 -2h4q66 0 111 15.5
t71 46.5q29 30 43 81q13 52 13 125v248q0 74 6 127q4 51 16 82q10 33 30.5 56.5t47.5 39.5q22 15 49 25t58.5 16t74.5 11q43 2 94 2l37 2v-152z" />
    <glyph glyph-name="bar" unicode="|" horiz-adv-x="1024" 
d="M588 1565v-2046h-152v2046h152z" />
    <glyph glyph-name="braceright" unicode="}" horiz-adv-x="1024" 
d="M573 1116v-246q0 -75 15 -127q14 -51 40.5 -81.5t73 -46t109.5 -15.5h4t6 2h6h7h14h8v-145q-2 -2 -6 -2h-14h-7q-4 0 -8 2h-4h-4q-65 0 -111.5 -15.5t-72.5 -46.5q-27 -30 -41.5 -82.5t-14.5 -128.5v-239q0 -76 -4 -127q-6 -54 -18 -84q-10 -33 -29 -58q-20 -24 -49 -41
q-20 -12 -45 -20q-27 -10 -57.5 -16.5t-71.5 -8.5q-43 -4 -96 -4h-43v150h39q59 0 100 12q41 10 61 33q21 20 31 67q10 48 10 117v240q0 78 12.5 135t32.5 90q23 35 62 58.5t94 37.5q-55 17 -94 41q-39 25 -62 58q-20 34 -32 92q-13 55 -13 135v246q0 67 -10 114
q-10 45 -31 68q-20 23 -61 33t-100 10l-39 2v152h37q53 -2 96 -4q41 -5 73.5 -11t59.5 -16t47 -25q29 -16 48.5 -39.5t29.5 -56.5q12 -31 18 -82q4 -53 4 -129v2z" />
    <glyph glyph-name="asciitilde" unicode="~" horiz-adv-x="1706" 
d="M1530 612q-51 -37 -103 -63q-51 -27 -98 -45q-24 -8 -47 -15q-25 -6 -47 -12q-23 -4 -45 -6q-25 -2 -49 -2q-47 0 -111 14q-65 15 -145 45q-13 4 -21 9q-8 2 -14 4q-2 0 -6 2q-4 0 -8 2q-88 28 -156 45q-70 14 -119 14q-41 0 -84 -8q-43 -10 -90 -29q-45 -18 -98 -47
q-53 -31 -113 -71v155q53 35 104.5 61.5t98.5 45t94 28.5q45 9 90 9h23q10 0 20 -3q21 0 43 -2q21 -4 43 -10q33 -6 74 -18.5t88 -30.5q8 -2 20 -6q13 -4 27 -10q80 -29 140.5 -43.5t101.5 -14.5q43 0 88 11q45 8 90 26q47 19 100 49q52 31 109 70v-154z" />
    <glyph glyph-name="nonbreakingspace" unicode="&#xa0;" horiz-adv-x="588" 
 />
    <glyph glyph-name="exclamdown" unicode="&#xa1;" horiz-adv-x="819" 
d="M336 1034h145l35 -1034h-217zM299 1419h217v-215h-217v215z" />
    <glyph glyph-name="cent" unicode="&#xa2;" horiz-adv-x="1176" 
d="M748 901h-7q-79 -2 -145 -27q-66 -24 -115 -75t-73 -119q-25 -70 -25 -154q0 -49 10 -92q10 -45 28.5 -84t45.5 -71.5t61 -59.5zM877 1313h96l-86 -269q20 -8 37 -12q14 -4 22 -8q10 -2 18.5 -4t14.5 -6l-16 -164q-13 4 -25 10q-14 6 -31 10q-8 4 -16 6.5t-17 6.5
q-8 2 -16 6q-8 2 -18 4l-228 -713q19 -8 35 -10q15 -4 29 -8q12 -2 24 -2q13 -2 25 -2q33 0 66 4q30 2 61 8q14 4 31 8q14 4 28 10q15 7 31 13q14 6 29 12l8 -168q-29 -12 -59 -20q-31 -11 -64 -17t-65 -6q-33 -2 -68 -2h-45h-43q-21 4 -39 8q-18 2 -37 4l-88 -274h-94
l98 307q-69 33 -123.5 80t-93.5 108q-37 64 -55 138q-21 73 -21 155q0 125 39 224q37 96 113 168q78 71 180 108q102 35 234 35h4h4q4 -2 8 -2h6h16h11z" />
    <glyph glyph-name="sterling" unicode="&#xa3;" horiz-adv-x="1176" 
d="M1077 1407l-16 -166q-27 12 -51 23q-27 8 -49 14q-13 4 -23 6q-12 2 -25 4q-12 0 -22 2h-25q-78 0 -135 -24q-59 -27 -96 -80q-37 -51 -55.5 -135t-18.5 -199v-27h332v-125h-332v-540h488v-160h-879v160h205v540h-178v125l178 2q-2 4 -2 11v14v20v25q0 137 29.5 239.5
t89.5 170.5q59 69 149 104t209 35q24 0 53 -2q27 -4 55 -8q29 -6 60 -13q29 -8 59 -18v2z" />
    <glyph glyph-name="currency" unicode="&#xa4;" horiz-adv-x="1239" 
d="M926 887q0 59 -23 112q-22 54 -67 99t-99 67q-53 23 -114 23q-64 0 -117 -23q-53 -22 -98.5 -67t-67.5 -99q-23 -53 -23 -114q0 -64 22.5 -117t68.5 -100q45 -45 98 -66.5t117 -21.5q61 0 114 22q54 21 99 66q45 47 67 100q23 53 23 117v2zM367 1219q28 20 59 36
q29 15 59 25q33 10 68 16q33 7 68 7q34 0 69 -7q33 -6 64 -16q32 -10 63 -25.5t60 -37.5l202 204l82 -80l-205 -204q23 -29 38.5 -58.5t23.5 -62.5q10 -31 16 -64q4 -34 4 -69q0 -37 -4 -70q-4 -35 -14 -68q-10 -30 -25.5 -59t-38.5 -55l205 -205l-82 -82l-202 207
q-29 -25 -60 -41t-63 -27q-31 -10 -64 -14q-33 -6 -67 -6q-37 0 -70 6q-35 4 -66 14q-32 11 -61 29q-31 16 -59 37l-205 -205l-82 82l207 207q-21 22 -37.5 51t-26.5 61q-10 33 -14 68q-6 35 -6 70t6 67q4 33 14 66q10 31 26.5 60.5t37.5 58.5l-207 206l82 80z" />
    <glyph glyph-name="yen" unicode="&#xa5;" horiz-adv-x="1178" 
d="M-31 1419h219l402 -688l405 688h203l-321 -512h227v-98h-291l-125 -201h416v-98h-426v-510h-186v510h-431v98h414l-127 201h-287v98h228z" />
    <glyph glyph-name="brokenbar" unicode="&#xa6;" horiz-adv-x="1024" 
d="M588 408v-756h-152v756h152zM588 1432v-758h-152v758h152z" />
    <glyph glyph-name="section" unicode="&#xa7;" horiz-adv-x="1024" 
d="M401 862q-32 -16 -55.5 -35.5t-40.5 -42.5q-14 -22 -22 -49q-11 -26 -11 -55q0 -39 21 -74q18 -37 55 -71q39 -35 119 -84.5t201 -114.5q28 22 51 45q20 20 35 41q14 22 20 47q6 23 6 47q0 66 -86 148q-88 81 -264 182l-16 8t-13 6v2zM852 1391l-29 -148q-32 14 -63 27
q-33 10 -66 18q-14 4 -30 8q-17 2 -31 4q-17 3 -31 5h-33q-45 0 -82 -11q-36 -10 -65 -32q-27 -21 -39 -50q-14 -28 -14 -63q0 -45 57 -100.5t170 -116.5l8 -4q4 -4 6 -4q107 -58 176 -107q70 -49 103 -88t49 -84q14 -45 14 -96q0 -43 -10 -82q-12 -41 -37 -76
q-22 -37 -55 -67q-35 -31 -82 -60q29 -24 49 -49q21 -27 35 -55q14 -27 21.5 -56.5t7.5 -62.5q0 -68 -27 -123q-29 -57 -82 -98q-55 -41 -131 -60.5t-172 -19.5q-33 0 -70 4q-37 2 -77 12q-41 8 -84 21q-43 10 -86 26l26 150q19 -8 37 -16.5t39 -14.5q18 -6 37 -10
q18 -6 37 -10q39 -11 78 -15q36 -4 75 -4q47 0 86 13q37 12 68 34q29 21 43 49.5t14 61.5q0 45 -47 96q-47 49 -139 105q-10 6 -19 10q-8 4 -14 6q-117 70 -190 123q-76 53 -109 90t-47 80q-16 43 -16 88q0 49 12 92q10 41 33 76q24 35 61 67q35 31 82 58q-29 22 -51.5 47
t-36.5 51q-14 29 -23 62q-8 30 -8 63q0 66 27 119q24 53 74 92q51 41 118 61q68 19 150 19q35 0 72 -4q34 -4 73 -12q39 -7 78 -17t80 -24v2z" />
    <glyph glyph-name="dieresis" unicode="&#xa8;" horiz-adv-x="1024" 
d="M592 1423h172v-188h-172v188zM258 1423h170v-188h-170v188z" />
    <glyph glyph-name="copyright" unicode="&#xa9;" horiz-adv-x="1706" 
d="M1053 905q-9 37 -23 68q-16 28 -45 49q-27 22 -59 33q-35 8 -78 8q-53 0 -94 -21.5t-72 -68.5q-31 -45 -45 -107.5t-14 -142.5q0 -78 16 -137q14 -62 45 -107q31 -43 74 -65.5t98 -22.5q41 0 76 12q35 13 61 35q29 25 45 58q17 32 25 71l143 2q-4 -65 -30.5 -118.5
t-75.5 -94.5q-49 -39 -111.5 -59.5t-136.5 -20.5q-92 0 -162 31q-72 29 -125 88q-51 60 -76.5 144t-25.5 190q0 102 26 182q27 80 81.5 141.5t125.5 92.5q72 31 160 31q72 0 131 -19q60 -20 107 -57t73 -86q27 -49 31 -111zM1493 725q0 63 -12 127q-13 61 -37 119
q-23 59 -55 110q-35 52 -80 97q-47 47 -99 82q-53 32 -110.5 56.5t-118.5 37.5q-63 10 -129 10q-64 0 -123 -10q-61 -13 -119 -35q-57 -25 -108 -57q-51 -35 -96 -80q-48 -47 -82 -101q-37 -53 -62 -112q-24 -58 -37 -119q-12 -62 -12 -127q0 -64 11.5 -123t35.5 -119
q25 -57 62 -108q34 -54 79 -101q48 -45 101 -79q51 -35 108 -60q58 -24 119 -37q59 -12 123 -12q63 0 125 12q61 13 119 37q59 25 112 62q52 34 101 81q45 43 80 95q32 51 57 108q22 58 34.5 119t12.5 125v2zM852 1462q76 -2 147 -14q70 -14 138 -41q65 -27 127 -68
q59 -41 110 -94q53 -51 94 -110q39 -60 66 -127q29 -68 43 -138q12 -71 12 -147q0 -74 -12 -143q-14 -72 -41 -138q-27 -65 -66.5 -123.5t-93.5 -109.5q-53 -53 -114 -94q-62 -43 -132 -72q-67 -27 -137 -39q-69 -12 -141 -12q-74 0 -143.5 12t-135.5 39q-67 29 -127 70
q-59 41 -112 94t-92 112q-41 60 -70 125q-27 66 -41 138q-14 69 -14 141q0 74 14 144.5t41 138.5q29 67 70 129q41 59 94 112q51 53 110 94q60 39 125 66q66 27 136 41q69 12 145 12v2z" />
    <glyph glyph-name="ordfeminine" unicode="&#xaa;" horiz-adv-x="809" 
d="M469 1059q-63 -2 -113 -12q-49 -11 -84 -29q-32 -19 -49 -45q-18 -29 -18 -66q0 -26 10 -47q8 -22 29 -41q18 -16 45 -24q24 -11 53 -11q49 0 90 17q39 14 68 43q30 30 44.5 69t14.5 91v55h-90zM696 1141v-441h-127v121q-20 -35 -47 -57q-28 -25 -61 -41t-72 -25.5
t-84 -9.5q-53 0 -96 17q-45 14 -80 43q-35 30 -51 69q-19 39 -19 84q0 60 27 105t78 75q51 31 125 47q73 17 172 17l98 2v12q0 41 -12 74t-37 55q-27 25 -59 37q-35 10 -80 10q-27 0 -52 -2q-26 -4 -53 -12q-26 -8 -53 -18q-29 -13 -57 -27l-2 113q28 10 59 20q31 8 63 14
q31 9 66 13q33 2 70 2q71 0 124.5 -19.5t88.5 -56.5q37 -37 55 -92q16 -58 16 -131v2z" />
    <glyph glyph-name="guillemotleft" unicode="&#xab;" horiz-adv-x="1012" 
d="M772 948h168l-258 -418l258 -415h-170l-264 415zM342 948h170l-258 -418l258 -415h-170l-266 415z" />
    <glyph glyph-name="logicalnot" unicode="&#xac;" horiz-adv-x="1706" 
d="M1450 858v-502h-135v365h-1061v137h1196z" />
    <glyph glyph-name="sfthyphen" unicode="&#xad;" horiz-adv-x="690" 
d="M88 639h512v-158h-512v158z" />
    <glyph glyph-name="registered" unicode="&#xae;" horiz-adv-x="1706" 
d="M844 1057h-129v-279h133h20q43 0 76 6q41 9 65.5 25t37.5 43q12 25 12 57q0 39 -12 68q-15 27 -39 43q-27 16 -68 27q-41 8 -96 8v2zM870 1157q88 -2 154 -16q63 -15 109 -43q43 -27 65 -70q23 -43 23 -100q0 -45 -13 -82q-12 -37 -39 -68q-24 -28 -59 -47
q-35 -18 -82 -29l189 -378h-179l-170 356h-153v-356h-160v833h315zM1493 721q0 63 -12.5 126.5t-34.5 121.5q-23 59 -55 110q-35 51 -80 97q-45 47 -97 81q-53 35 -112 60q-58 24 -121 37q-63 10 -129 10q-64 0 -125 -10q-61 -13 -119 -35q-57 -25 -106 -57q-51 -35 -94 -78
q-48 -47 -82 -101q-37 -55 -64 -114q-24 -60 -37 -121q-12 -62 -12 -125q0 -61 12 -121q11 -59 35 -119q25 -57 59 -108q35 -51 80 -99q47 -45 99 -79q51 -37 108 -62q60 -24 119 -37.5t123 -13.5q65 0 127 12q61 13 119 37q59 25 112 60q51 34 101 79q45 45 79 97
q33 49 57.5 106t37 118.5t12.5 125.5v2zM852 1462q76 -2 147 -14q70 -14 138 -43q67 -27 129 -68q59 -43 110 -96q54 -51 94 -111q39 -59 66 -126q27 -66 41 -136q12 -71 12 -145q0 -76 -12 -145q-14 -72 -41 -138q-27 -65 -68 -123.5t-94 -109.5q-53 -53 -114.5 -94
t-129.5 -70q-67 -27 -137 -39q-69 -12 -141 -12q-74 0 -143 12q-72 12 -138 39q-67 29 -127 70q-59 41 -112 96q-53 53 -92 113q-41 59 -70 124q-27 66 -39 136q-14 69 -14 141q0 74 14 144.5t43 138.5q29 69 70 130.5t96 114.5q49 54 109 92q57 37 122 64q66 29 135.5 41
t145.5 12v2z" />
    <glyph glyph-name="overstore" unicode="&#xaf;" horiz-adv-x="1024" 
d="M242 1395h536v-129h-536v129z" />
    <glyph glyph-name="degree.0" unicode="&#xb0;" horiz-adv-x="674" 
d="M528 1167q0 39 -12 74q-14 35 -43 62q-27 28 -59 43q-35 14 -76 14t-76 -14.5t-63 -42.5q-27 -27 -41 -62q-17 -35 -17 -76q0 -39 17 -73q14 -35 41 -64q28 -29 63 -43t76 -14t76 14q32 14 59 43q29 29 43 64q12 34 12 73v2zM338 1454q59 -2 111 -22q49 -21 90 -64
q43 -41 65 -92q21 -53 21 -113q0 -57 -21.5 -108t-62.5 -94q-43 -41 -95 -62q-51 -20 -110 -20q-62 0 -113 20q-51 21 -92 61.5t-61 92.5q-23 51 -23 110q0 60 23 113q20 51 63 92q41 43 92 63.5t113 20.5v2z" />
    <glyph glyph-name="plusminus" unicode="&#xb1;" horiz-adv-x="1706" 
d="M1450 170v-141h-1196v141h1196zM924 1192v-340h526v-139h-526v-340h-144v340h-526v139h526v340h144z" />
    <glyph glyph-name="twosuperior" unicode="&#xb2;" horiz-adv-x="774" 
d="M238 666h428v-99h-586v103q125 110 211 194q84 84 127 142q45 55 67 102q23 47 23 86q0 31 -12 55q-13 25 -37 43q-25 19 -56 29q-30 8 -69 8q-27 0 -53 -2q-27 -4 -54 -12q-26 -8 -51.5 -19.5t-50.5 -25.5l-16 110q32 13 65 23q31 10 64 16q12 2 22 4t23 4q22 3 44.5 5
t45.5 2q59 0 106 -17q47 -16 84 -49t58 -74q18 -41 18 -94q0 -47 -23 -100q-22 -56 -65 -115q-45 -59 -123 -139t-190 -182v2z" />
    <glyph glyph-name="threesuperior" unicode="&#xb3;" horiz-adv-x="774" 
d="M459 1016q47 -10 86 -27q37 -16 63 -43q27 -26 40.5 -59t13.5 -74q0 -57 -25 -102q-27 -47 -76 -82q-51 -35 -117 -54q-65 -18 -147 -18q-33 0 -64 4q-30 2 -61 6q-29 4 -55 13q-29 6 -56 14l17 113q22 -15 47 -23q22 -10 47 -16t50.5 -9.5t51.5 -3.5q58 0 103 12.5
t80 34.5q35 25 51 56q16 28 16 63t-14 62q-14 24 -43 43q-27 20 -68 29.5t-94 9.5l-98 2v92h100h17q38 0 71 8q39 8 68 27q29 20 43 44.5t14 55.5t-12 55q-14 23 -43 42.5t-64 29.5q-36 8 -84 8q-24 0 -49 -2q-24 -2 -51 -8l-24 -4q-15 -4 -27 -8t-25 -9q-14 -4 -26 -10
l-6 105q32 6 63 12t59 10q29 4 58 6q26 2 53 2q72 0 129 -14q55 -14 96 -45q43 -31 63.5 -70t20.5 -90q0 -35 -12 -65.5t-39 -56t-61.5 -43t-79.5 -25.5v2z" />
    <glyph glyph-name="acute" unicode="&#xb4;" horiz-adv-x="1024" 
d="M578 1520h188l-287 -357h-106z" />
    <glyph glyph-name="mu" unicode="&#xb5;" horiz-adv-x="1151" 
d="M383 1069l-127 -600q-2 -12 -4 -23l-4 -20q-2 -6 -2 -10q0 -6 -2 -13q-2 -16 -2 -32v-35q0 -51 12 -88q12 -39 39 -66q26 -26 63 -41q37 -14 84 -14q66 0 119 25q51 24 90 69q39 47 70 125q31 76 53 186l117 537h176l-156 -731v-10q-2 -6 -4 -13q-8 -43 -12 -69
q-4 -29 -4 -41q0 -19 4 -31q4 -14 12 -22.5t23 -12.5q12 -4 33 -4h12q4 0 6 2h8h4l-28 -137q-7 -2 -13 -2q-6 -2 -12 -2q-8 -2 -14 -2q-6 -2 -13 -2q-14 -2 -28 -2h-31q-31 0 -55 6q-25 4 -41 18q-17 15 -29 40.5t-22 60.5q-23 -33 -50 -58q-28 -24 -63 -41q-33 -14 -72 -20
q-41 -8 -88 -8q-39 0 -76 6t-65 16q-31 15 -60 37q-28 21 -55 51l-108 -524h-181l318 1495h178z" />
    <glyph glyph-name="paragraph" unicode="&#xb6;" horiz-adv-x="1024" 
d="M956 1393h-118v-1393h-113v1393h-174v-1393h-115v780q-84 2 -151.5 29t-118.5 72q-51 47 -76 108q-24 62 -24 137q0 78 26 144q27 63 80 110t127 72q72 25 160 25l497 2v-86z" />
    <glyph glyph-name="middot" unicode="&#xb7;" horiz-adv-x="588" 
d="M293 823q22 -2 42.5 -10t37.5 -25q16 -16 25.5 -36.5t9.5 -42.5q0 -25 -9.5 -45.5t-25.5 -36.5q-17 -15 -37 -23q-21 -10 -43 -10q-23 0 -43 10q-21 8 -37 24.5t-25.5 37t-9.5 43.5q0 22 9.5 42.5t25.5 36.5q16 17 37 25q18 8 43 8v2z" />
    <glyph glyph-name="cedilla" unicode="&#xb8;" horiz-adv-x="1024" 
d="M424 0h80v-100h16q53 0 94 -13q41 -12 70 -34.5t43 -55.5q14 -35 14 -78q0 -45 -14 -77q-16 -35 -45 -60q-31 -22 -74 -35q-45 -12 -104 -12q-27 0 -55 4q-31 2 -62 6q-33 6 -65 15q-35 6 -74 16v94q47 -10 84 -16q37 -8 63 -12q29 -4 51 -7q23 -4 37 -4q33 0 57.5 6.5
t39.5 16.5q14 8 22 24q6 17 6 39q0 25 -8 43q-8 19 -25 29q-16 10 -43 16q-26 7 -63 7h-14q-9 0 -13 -2h-8h-8z" />
    <glyph glyph-name="onesuperior" unicode="&#xb9;" horiz-adv-x="774" 
d="M377 1419h106v-852h-123v725l-153 -118l-70 73z" />
    <glyph glyph-name="ordmasculine" unicode="&#xba;" horiz-adv-x="899" 
d="M453 1335q-52 -2 -95 -20.5t-73 -54.5q-33 -39 -49 -89q-17 -49 -17 -110q0 -62 16.5 -111t49.5 -86q32 -39 75 -57q41 -19 93 -19q51 0 92 18.5t72.5 55.5t48.5 88q16 49 16 111q0 61 -16 113q-17 49 -48.5 85.5t-72.5 55t-92 18.5v2zM451 1440q90 -2 159 -27
q70 -27 121 -78t78 -118q25 -68 25 -156t-25 -156q-27 -69 -80 -121q-51 -51 -121 -75q-69 -27 -157 -27q-89 0 -158 27q-70 24 -121 75q-51 52 -76.5 120.5t-25.5 156.5t24 156q25 67 76 118q53 51 123 78q69 25 158 25v2z" />
    <glyph glyph-name="guillemotright" unicode="&#xbb;" horiz-adv-x="1012" 
d="M500 948h170l266 -418l-268 -415h-168l258 415zM70 948h170l266 -418l-268 -415h-168l258 415z" />
    <glyph glyph-name="onequarter" unicode="&#xbc;" horiz-adv-x="1823" 
d="M1544 696l-323 -432h319zM1507 797h154v-533h129v-88h-129v-176h-121v176h-424v105zM1221 1448h137l-756 -1475h-137zM358 1421h105v-794h-119v676l-147 -113l-66 72z" />
    <glyph glyph-name="onehalf" unicode="&#xbd;" horiz-adv-x="1823" 
d="M1309 88h407v-88h-559v90q121 107 203 185.5t125 130.5q41 53 62.5 98t21.5 82q0 28 -13 51q-12 20 -34 39q-23 16 -54 26q-30 9 -65 9q-27 0 -53.5 -4.5t-51.5 -10.5q-26 -8 -51 -18q-24 -10 -47 -27l-12 107q16 4 33 10q14 4 30 10q15 4 31 8q16 5 31 7q30 6 61 10
t64 4q55 0 102 -14q45 -17 80 -48q35 -28 53 -67q19 -39 19 -86t-21.5 -98.5t-64.5 -108.5q-43 -55 -117 -129q-74 -76 -180 -170v2zM1221 1448h137l-756 -1475h-137zM358 1421h105v-794h-119v676l-147 -113l-66 72z" />
    <glyph glyph-name="threequarters" unicode="&#xbe;" horiz-adv-x="1823" 
d="M1544 696l-323 -432h319zM1507 797h154v-533h129v-88h-129v-176h-121v176h-424v105zM1221 1448h137l-756 -1475h-137zM436 1042q47 -10 84 -24q35 -17 62 -41q24 -25 39 -55q12 -31 12 -68q0 -51 -25 -94q-24 -43 -71 -78q-48 -33 -111 -47q-64 -17 -141 -17
q-33 0 -62.5 2.5t-58.5 4.5q-27 4 -53 10q-27 4 -52 12l17 107q22 -13 45 -21q22 -10 45 -14l24 -4q13 -2 25 -4q10 -2 23 -2h24q53 0 98 12q43 10 76 31q33 22 49 51q17 26 17 59t-13 58q-14 22 -43 38q-26 19 -65 27t-88 8l-96 2v86h98h14q37 0 68 9q37 8 65 26
q29 19 42.5 42.5t13.5 49.5q0 29 -13.5 51.5t-40.5 40.5q-26 19 -61 27q-37 8 -80 8q-22 0 -45 -2q-25 -2 -49.5 -6t-49 -12t-48.5 -19l-11 99q31 6 59.5 12t55.5 8q14 2 28.5 4t28.5 2q15 2 29 2h29q65 0 119 -12q53 -14 92 -43q41 -27 61 -63q21 -37 21 -84q0 -33 -13 -62
q-12 -29 -37.5 -53.5t-58.5 -38.5q-35 -16 -78 -27v2z" />
    <glyph glyph-name="questiondown" unicode="&#xbf;" horiz-adv-x="1053" 
d="M500 1038h166v-10v-12q2 -4 2 -12v-19q0 -35 -6 -67q-7 -35 -17 -66q-12 -31 -31 -64q-20 -32 -49 -67q-10 -14 -26 -35q-19 -22 -41 -49q-74 -86 -109 -156q-37 -71 -37 -127q0 -47 21 -86q18 -41 57 -71.5t88 -47t109 -16.5q30 0 63 4q31 4 64 13q34 8 69 20t72 29
l2 -164q-39 -17 -78 -25q-41 -10 -76 -14q-36 -6 -71 -8q-37 -4 -72 -4q-98 0 -178 21.5t-139 70.5q-58 47 -86 112q-31 64 -31 146q0 78 55 180q53 102 160 231q12 15 21.5 27t17.5 21q20 24 35 51q14 24 24 51q10 29 17 57q4 29 4 62v24zM477 1419h211v-215h-211v215z" />
    <glyph glyph-name="Agrave" unicode="&#xc0;" horiz-adv-x="1352" 
d="M690 1245l-280 -723h555zM573 1419h242l557 -1419h-215l-135 365h-678l-135 -365h-203zM451 1915h188l205 -356h-109z" />
    <glyph glyph-name="Aacute" unicode="&#xc1;" horiz-adv-x="1352" 
d="M690 1245l-280 -723h555zM573 1419h242l557 -1419h-215l-135 365h-678l-135 -365h-203zM770 1915h188l-284 -356h-109z" />
    <glyph glyph-name="Acircumflex" unicode="&#xc2;" horiz-adv-x="1352" 
d="M690 1245l-280 -723h555zM573 1419h242l557 -1419h-215l-135 365h-678l-135 -365h-203zM614 1915h181l198 -356h-108l-180 243l-181 -243h-108z" />
    <glyph glyph-name="Atilde" unicode="&#xc3;" horiz-adv-x="1352" 
d="M690 1245l-280 -723h555zM573 1419h242l557 -1419h-215l-135 365h-678l-135 -365h-203zM913 1835h91q-15 -51 -33.5 -88t-42.5 -64q-25 -24 -56 -36q-30 -13 -65 -13q-8 0 -14 2q-9 0 -19 2q-4 0 -10 2q-6 0 -12 2q-4 0 -7 3h-6l-98 30q-8 2 -16.5 4t-14.5 2q-6 2 -12 2
h-10q-17 0 -31 -4t-25 -14q-12 -8 -20 -20q-10 -15 -16 -33l-93 2q13 47 31 84q19 37 43 61q25 25 55 37q31 12 70 12h19q8 0 16 -2h16q6 -2 15 -6l96 -28q2 -3 6 -3q2 -2 4 -2q4 -2 10 -2q4 -2 9 -2h8q2 -2 6 -2q2 -2 6 -2h6q17 0 31 6q14 4 24 13q13 10 23 24q8 13 16 31
v2z" />
    <glyph glyph-name="Adieresis" unicode="&#xc4;" horiz-adv-x="1352" 
d="M690 1245l-280 -723h555zM573 1419h242l557 -1419h-215l-135 365h-678l-135 -365h-203zM784 1819h172v-191h-172v191zM453 1819h170v-191h-170v191z" />
    <glyph glyph-name="Aring" unicode="&#xc5;" horiz-adv-x="1352" 
d="M690 1245l-280 -723h555zM573 1419h242l557 -1419h-215l-135 365h-678l-135 -365h-203zM690 1876q-28 -2 -53 -10q-25 -11 -47 -31q-21 -20 -29 -45q-10 -27 -10 -55q0 -31 10 -56q10 -24 31 -45q20 -20 45 -30.5t53 -10.5q31 0 55 11q25 10 46 30q20 21 30 45q8 25 8 56
q0 28 -8 53q-10 24 -30 45q-21 22 -46 33q-24 8 -55 8v2zM688 1987q53 -2 98 -21q43 -18 80 -53q37 -37 56 -80q16 -45 16 -96q0 -54 -16 -97q-19 -45 -56 -81q-35 -37 -80 -54.5t-98 -17.5q-51 0 -94 18q-45 17 -82 54q-35 36 -53 81q-19 43 -19 97q0 51 19 96q18 43 53 80
q37 35 82 53q43 19 94 19v2z" />
    <glyph glyph-name="AE" unicode="&#xc6;" horiz-adv-x="1843" 
d="M901 1272l-434 -748h469v748h-35zM803 1419h893v-155h-568v-449h535v-160h-535v-491h584v-164h-776v367h-557l-211 -367h-211z" />
    <glyph glyph-name="Ccedilla" unicode="&#xc7;" horiz-adv-x="1247" 
d="M1194 1368l-6 -172q-41 16 -80 29q-41 12 -82 20q-39 10 -78 15q-41 4 -82 4q-127 0 -227 -37q-102 -39 -178 -113q-76 -76 -113 -176q-39 -100 -39 -227q0 -129 39 -230q37 -102 113 -176q74 -72 176 -108.5t231 -36.5q41 0 82 4q39 2 78 10q41 8 80 21q37 10 76 24
l6 -176q-39 -12 -78 -20q-39 -11 -82 -17q-41 -6 -86 -6q-45 -2 -92 -2q-174 0 -311.5 45t-237.5 139q-100 97 -151.5 226t-51.5 290q0 166 54 299q51 131 153 230q103 96 240 145t311 49q47 0 92 -2q45 -4 86 -10q43 -8 82 -16q39 -11 76 -27v2zM694 0h80v-100h19
q53 0 94 -13q41 -12 69 -34q29 -23 43 -56q15 -35 15 -78q0 -45 -15 -77q-16 -35 -45 -60q-30 -22 -75 -35q-45 -12 -105 -12q-26 0 -55 4q-29 2 -60 6q-32 6 -67 15q-35 6 -74 16v94q47 -10 86 -16q37 -8 64 -12q28 -4 50.5 -7.5t37.5 -3.5q32 0 57 6.5t39 16.5q14 8 22 24
q7 17 7 39q0 25 -9 43q-8 19 -24.5 29t-42.5 16q-27 7 -64 7h-14q-8 0 -12 -2h-8h-11z" />
    <glyph glyph-name="Egrave" unicode="&#xc8;" horiz-adv-x="1096" 
d="M174 1419h770v-151h-569v-453h538v-160h-538v-491h590v-164h-791v1419zM295 1915h186l205 -356h-106z" />
    <glyph glyph-name="Eacute" unicode="&#xc9;" horiz-adv-x="1096" 
d="M174 1419h770v-151h-569v-453h538v-160h-538v-491h590v-164h-791v1419zM614 1915h189l-287 -356h-106z" />
    <glyph glyph-name="Ecircumflex" unicode="&#xca;" horiz-adv-x="1096" 
d="M174 1419h770v-151h-569v-453h538v-160h-538v-491h590v-164h-791v1419zM459 1915h180l199 -356h-111l-178 243l-180 -243h-111z" />
    <glyph glyph-name="Edieresis" unicode="&#xcb;" horiz-adv-x="1096" 
d="M174 1419h770v-151h-569v-453h538v-160h-538v-491h590v-164h-791v1419zM629 1819h172v-191h-172v191zM297 1819h170v-191h-170v191z" />
    <glyph glyph-name="Igrave" unicode="&#xcc;" horiz-adv-x="551" 
d="M174 1419h201v-1419h-201v1419zM20 1915h189l205 -356h-109z" />
    <glyph glyph-name="Iacute" unicode="&#xcd;" horiz-adv-x="551" 
d="M174 1419h201v-1419h-201v1419zM340 1915h188l-284 -356h-109z" />
    <glyph glyph-name="Icircumflex" unicode="&#xce;" horiz-adv-x="551" 
d="M174 1419h201v-1419h-201v1419zM184 1915h181l198 -356h-108l-181 243l-180 -243h-106z" />
    <glyph glyph-name="Idieresis" unicode="&#xcf;" horiz-adv-x="551" 
d="M174 1419h201v-1419h-201v1419zM354 1819h172v-191h-172v191zM23 1819h170v-191h-170v191z" />
    <glyph glyph-name="Eth" unicode="&#xd0;" horiz-adv-x="1438" 
d="M410 1262v-459h319v-131h-319v-506h159h13q127 0 225 35q104 35 178 106q76 72 113 174q37 103 37 234q0 133 -35 235q-37 101 -109 170q-71 70 -176.5 105t-245.5 35zM209 1419h334q200 -2 350 -45q149 -45 250 -135q100 -88 149 -221q49 -135 49 -313q0 -170 -51 -302
q-53 -131 -157.5 -223t-251.5 -135q-150 -45 -342 -45h-330v672h-176v131h176v616z" />
    <glyph glyph-name="Ntilde" unicode="&#xd1;" horiz-adv-x="1444" 
d="M174 1419h252l616 -1106q7 -14 17 -30q8 -19 16 -45q10 -25 21 -54q8 -28 16 -61q-6 39 -10 73.5t-8 65.5t-7 60q-2 26 -2 49v1048h185v-1419h-246l-629 1114q-6 8 -12 27q-6 16 -16 39q-5 16 -11 37q-8 18 -14 40q-2 11 -4 23q-4 12 -8 25q8 -58 14 -101q4 -45 6 -76
q4 -30 6 -53v-37v-1038h-182v1419zM932 1835h90q-14 -51 -33 -88q-18 -37 -43 -64q-24 -24 -55 -36.5t-68 -12.5q-8 0 -14 2q-8 0 -16 2q-5 0 -11 2q-6 0 -12 2q-4 0 -6 3h-6l-99 30l-16 4q-10 2 -16 2q-2 0 -4 2h-7h-6h-6q-14 0 -29 -4q-14 -4 -26 -14q-10 -8 -19 -20
q-10 -15 -18 -33l-90 2q12 47 30.5 84t43.5 61q24 25 55 37t70 12h18t16 -2h17q6 -2 12 -6l98 -28q2 -3 6 -3q3 -2 5 -2h2q0 -2 2 -2h8q2 -2 6 -2q6 -2 12 -2q6 -2 15 -2q16 0 30 6q15 4 25 13q12 10 21.5 23.5t17.5 31.5v2z" />
    <glyph glyph-name="Ograve" unicode="&#xd2;" horiz-adv-x="1499" 
d="M750 1288q-101 -2 -181 -41t-139 -119q-59 -77 -90 -182q-31 -104 -31 -235t31 -236.5t90 -183.5t139 -117q80 -41 181 -41q98 0 178 41q80 39 141 117q59 78 90 183.5t31 236.5t-31 235q-31 105 -92 182q-59 80 -139 119t-178 39v2zM750 1448q149 -2 266 -51
q117 -51 205 -150q86 -98 131 -233q43 -135 43 -305q0 -172 -43 -308q-45 -135 -131 -233q-86 -100 -203 -148q-119 -47 -268 -47q-150 0 -267 47q-118 48 -207 148q-86 98 -129 233q-45 136 -45 308q0 170 45 305q43 135 129 233q89 99 207 150q117 49 267 49v2zM498 1915
h186l207 -356h-109z" />
    <glyph glyph-name="Oacute" unicode="&#xd3;" horiz-adv-x="1499" 
d="M750 1288q-101 -2 -181 -41t-139 -119q-59 -77 -90 -182q-31 -104 -31 -235t31 -236.5t90 -183.5t139 -117q80 -41 181 -41q98 0 178 41q80 39 141 117q59 78 90 183.5t31 236.5t-31 235q-31 105 -92 182q-59 80 -139 119t-178 39v2zM750 1448q149 -2 266 -51
q117 -51 205 -150q86 -98 131 -233q43 -135 43 -305q0 -172 -43 -308q-45 -135 -131 -233q-86 -100 -203 -148q-119 -47 -268 -47q-150 0 -267 47q-118 48 -207 148q-86 98 -129 233q-45 136 -45 308q0 170 45 305q43 135 129 233q89 99 207 150q117 49 267 49v2zM817 1915
h189l-285 -356h-109z" />
    <glyph glyph-name="Ocircumflex" unicode="&#xd4;" horiz-adv-x="1499" 
d="M750 1288q-101 -2 -181 -41t-139 -119q-59 -77 -90 -182q-31 -104 -31 -235t31 -236.5t90 -183.5t139 -117q80 -41 181 -41q98 0 178 41q80 39 141 117q59 78 90 183.5t31 236.5t-31 235q-31 105 -92 182q-59 80 -139 119t-178 39v2zM750 1448q149 -2 266 -51
q117 -51 205 -150q86 -98 131 -233q43 -135 43 -305q0 -172 -43 -308q-45 -135 -131 -233q-86 -100 -203 -148q-119 -47 -268 -47q-150 0 -267 47q-118 48 -207 148q-86 98 -129 233q-45 136 -45 308q0 170 45 305q43 135 129 233q89 99 207 150q117 49 267 49v2zM662 1915
h180l198 -356h-108l-180 243l-181 -243h-108z" />
    <glyph glyph-name="Otilde" unicode="&#xd5;" horiz-adv-x="1499" 
d="M750 1288q-101 -2 -181 -41t-139 -119q-59 -77 -90 -182q-31 -104 -31 -235t31 -236.5t90 -183.5t139 -117q80 -41 181 -41q98 0 178 41q80 39 141 117q59 78 90 183.5t31 236.5t-31 235q-31 105 -92 182q-59 80 -139 119t-178 39v2zM750 1448q149 -2 266 -51
q117 -51 205 -150q86 -98 131 -233q43 -135 43 -305q0 -172 -43 -308q-45 -135 -131 -233q-86 -100 -203 -148q-119 -47 -268 -47q-150 0 -267 47q-118 48 -207 148q-86 98 -129 233q-45 136 -45 308q0 170 45 305q43 135 129 233q89 99 207 150q117 49 267 49v2zM961 1835
h90q-15 -51 -33.5 -88t-42.5 -64q-25 -24 -55.5 -36.5t-67.5 -12.5q-4 0 -8 2h-13q-2 0 -4 2h-6q-4 0 -10 2q-6 0 -12 2q-4 0 -6 3h-7l-98 30l-16 4t-15 2q-8 2 -12 2h-10q-17 0 -31 -4t-26 -14q-11 -8 -19 -20q-10 -15 -16 -33l-92 2q12 47 30 84q19 37 43 61
q25 25 55.5 37t69.5 12h19q8 0 16 -2h16q7 -2 15 -6l96 -28q2 -3 6 -3q2 -2 4 -2q4 -2 10 -2q5 -2 9 -2h8q2 -2 6 -2q2 -2 6 -2h6q17 0 31 6q14 4 25 13q12 10 22 24q8 13 17 31v2z" />
    <glyph glyph-name="Odieresis" unicode="&#xd6;" horiz-adv-x="1499" 
d="M750 1288q-101 -2 -181 -41t-139 -119q-59 -77 -90 -182q-31 -104 -31 -235t31 -236.5t90 -183.5t139 -117q80 -41 181 -41q98 0 178 41q80 39 141 117q59 78 90 183.5t31 236.5t-31 235q-31 105 -92 182q-59 80 -139 119t-178 39v2zM750 1448q149 -2 266 -51
q117 -51 205 -150q86 -98 131 -233q43 -135 43 -305q0 -172 -43 -308q-45 -135 -131 -233q-86 -100 -203 -148q-119 -47 -268 -47q-150 0 -267 47q-118 48 -207 148q-86 98 -129 233q-45 136 -45 308q0 170 45 305q43 135 129 233q89 99 207 150q117 49 267 49v2zM831 1819
h173v-191h-173v191zM500 1819h170v-191h-170v191z" />
    <glyph glyph-name="multiply" unicode="&#xd7;" horiz-adv-x="1706" 
d="M858 709l469 469l98 -101l-469 -469l469 -469l-98 -96l-469 469l-469 -469l-96 96l469 469l-469 469l96 101z" />
    <glyph glyph-name="Oslash" unicode="&#xd8;" horiz-adv-x="1499" 
d="M1126 1038l-677 -772q24 -33 57 -57.5t72 -40.5q40 -18 86 -27q43 -10 90 -10q98 0 178 41q80 39 141 115q62 78 91.5 178t29.5 225q0 55 -2 105q-4 47 -14 90q-9 43 -21 82q-14 37 -31 69v2zM1057 1155q-29 33 -62.5 58.5t-74.5 41.5q-39 17 -82 25t-90 8
q-101 0 -181 -37q-80 -39 -141 -116q-61 -76 -92 -177.5t-31 -228.5q0 -49 6 -94q4 -47 13 -94q10 -45 22 -84q12 -41 29 -76zM1352 1491l96 -88l-182 -209q30 -51 55 -107q25 -55 41 -118.5t24 -130.5q9 -70 9 -146q0 -162 -43 -293q-45 -133 -133 -231q-86 -100 -201 -148
q-117 -47 -260 -47q-64 0 -123 11q-62 10 -121 26q-57 23 -104.5 50.5t-83.5 64.5l-181 -195l-96 86l182 213q-30 47 -55 105q-24 55 -41 119q-14 63 -22 131q-11 67 -11 139q0 164 45 295q43 129 131.5 228.5t204.5 150.5q115 49 258 49q66 0 124.5 -10.5t115.5 -30.5
q55 -21 104 -49q50 -29 93 -68z" />
    <glyph glyph-name="Ugrave" unicode="&#xd9;" horiz-adv-x="1411" 
d="M164 1419h196v-835q0 -117 23 -201q20 -84 61 -139.5t105 -81.5q63 -29 147 -29q86 0 152 31q63 31 108 88q43 59 66 147q20 86 20 199v821h187v-823q0 -158 -33 -274q-35 -117 -102 -195q-66 -78 -166 -115q-103 -39 -238 -39q-129 0 -227 37t-166 113q-68 78 -100 190
q-33 113 -33 262v844zM453 1915h186l207 -356h-109z" />
    <glyph glyph-name="Uacute" unicode="&#xda;" horiz-adv-x="1411" 
d="M164 1419h196v-835q0 -117 23 -201q20 -84 61 -139.5t105 -81.5q63 -29 147 -29q86 0 152 31q63 31 108 88q43 59 66 147q20 86 20 199v821h187v-823q0 -158 -33 -274q-35 -117 -102 -195q-66 -78 -166 -115q-103 -39 -238 -39q-129 0 -227 37t-166 113q-68 78 -100 190
q-33 113 -33 262v844zM772 1915h189l-285 -356h-109z" />
    <glyph glyph-name="Ucircumflex" unicode="&#xdb;" horiz-adv-x="1411" 
d="M164 1419h196v-835q0 -117 23 -201q20 -84 61 -139.5t105 -81.5q63 -29 147 -29q86 0 152 31q63 31 108 88q43 59 66 147q20 86 20 199v821h187v-823q0 -158 -33 -274q-35 -117 -102 -195q-66 -78 -166 -115q-103 -39 -238 -39q-129 0 -227 37t-166 113q-68 78 -100 190
q-33 113 -33 262v844zM616 1915h181l198 -356h-108l-180 243l-181 -243h-108z" />
    <glyph glyph-name="Udieresis" unicode="&#xdc;" horiz-adv-x="1411" 
d="M164 1419h196v-835q0 -117 23 -201q20 -84 61 -139.5t105 -81.5q63 -29 147 -29q86 0 152 31q63 31 108 88q43 59 66 147q20 86 20 199v821h187v-823q0 -158 -33 -274q-35 -117 -102 -195q-66 -78 -166 -115q-103 -39 -238 -39q-129 0 -227 37t-166 113q-68 78 -100 190
q-33 113 -33 262v844zM786 1819h172v-191h-172v191zM455 1819h170v-191h-170v191z" />
    <glyph glyph-name="Yacute" unicode="&#xdd;" horiz-adv-x="1180" 
d="M-33 1419h234l393 -671l399 671h217l-524 -831v-588h-201v584zM655 1915h189l-287 -356h-106z" />
    <glyph glyph-name="Thorn" unicode="&#xde;" horiz-adv-x="1083" 
d="M375 1061v-535h129h16q68 0 123 17q59 18 102 51q43 35 63.5 86t20.5 117q0 61 -18 110q-20 47 -59 82t-95 53q-55 17 -127 17zM174 1419h201v-202h153q127 -3 224 -29q94 -27 157 -80q66 -51 97 -129q30 -80 30 -184q0 -101 -32 -179q-35 -79 -103 -135
q-67 -55 -162.5 -82.5t-220.5 -27.5l-143 2v-373h-201v1419z" />
    <glyph glyph-name="germandbls" unicode="&#xdf;" horiz-adv-x="1202" 
d="M762 819q84 -12 147 -43q64 -31 107 -80q45 -49 67 -114q23 -66 23 -148q0 -100 -31 -182t-94 -146q-61 -63 -139 -92q-80 -28 -178 -28q-23 0 -46 2q-24 0 -47 2l-24 4t-25 2l-24 4q-15 0 -29 2l4 168q19 -10 37 -16q18 -9 37 -13q18 -2 37 -4q18 -4 39 -4q63 0 114 23
q51 20 90 61t58 96q18 56 18 125q0 70 -20 123q-23 51 -66 86q-43 37 -106 55q-64 19 -148 19l-33 2v158h9h12q63 0 113 16q55 18 96 57q41 37 62.5 87.5t21.5 113.5q0 57 -17 102q-16 43 -49 76q-33 35 -76 51q-45 17 -102 17q-65 0 -115 -25q-49 -26 -77 -78
q-29 -49 -43 -131q-17 -84 -17 -198v-969h-188v1024q0 127 28 225q27 99 82 164q58 66 142 98q82 33 192 33q98 0 176 -24q78 -27 135 -80q60 -54 89 -125q26 -72 26 -162q0 -63 -16 -119q-19 -55 -53.5 -98t-84 -72.5t-114.5 -46.5v2z" />
    <glyph glyph-name="agrave" unicode="&#xe0;" horiz-adv-x="1079" 
d="M627 508q-86 -2 -152 -14q-65 -15 -113 -43q-45 -27 -67 -66q-25 -39 -25 -90q0 -39 15 -70q12 -30 38.5 -55t61.5 -37q33 -12 74 -12q65 0 119 20q51 21 90 64q41 41 61 98q19 55 19 125v80h-121zM932 625v-625h-170v170q-31 -47 -68 -82q-37 -37 -82 -59
q-43 -23 -94 -31q-51 -10 -108 -10q-74 0 -134 18q-59 19 -104 62q-45 41 -68 96q-22 55 -22 123q0 84 35 147q33 64 100 109q70 45 168 67q98 23 227 23l136 2v18q0 58 -17 107q-16 47 -51 80q-33 32 -80 48.5t-106 16.5q-33 0 -68 -4q-37 -6 -72 -16q-37 -11 -73.5 -27
t-73.5 -39l-2 160q39 16 80 31q39 14 82 22q41 10 88 15q45 4 94 4q96 0 168 -27q69 -29 119 -82q47 -51 71 -131q25 -82 25 -188v2zM287 1520h186l207 -357h-109z" />
    <glyph glyph-name="aacute" unicode="&#xe1;" horiz-adv-x="1079" 
d="M627 508q-86 -2 -152 -14q-65 -15 -113 -43q-45 -27 -67 -66q-25 -39 -25 -90q0 -39 15 -70q12 -30 38.5 -55t61.5 -37q33 -12 74 -12q65 0 119 20q51 21 90 64q41 41 61 98q19 55 19 125v80h-121zM932 625v-625h-170v170q-31 -47 -68 -82q-37 -37 -82 -59
q-43 -23 -94 -31q-51 -10 -108 -10q-74 0 -134 18q-59 19 -104 62q-45 41 -68 96q-22 55 -22 123q0 84 35 147q33 64 100 109q70 45 168 67q98 23 227 23l136 2v18q0 58 -17 107q-16 47 -51 80q-33 32 -80 48.5t-106 16.5q-33 0 -68 -4q-37 -6 -72 -16q-37 -11 -73.5 -27
t-73.5 -39l-2 160q39 16 80 31q39 14 82 22q41 10 88 15q45 4 94 4q96 0 168 -27q69 -29 119 -82q47 -51 71 -131q25 -82 25 -188v2zM606 1520h189l-285 -357h-109z" />
    <glyph glyph-name="acircumflex" unicode="&#xe2;" horiz-adv-x="1079" 
d="M627 508q-86 -2 -152 -14q-65 -15 -113 -43q-45 -27 -67 -66q-25 -39 -25 -90q0 -39 15 -70q12 -30 38.5 -55t61.5 -37q33 -12 74 -12q65 0 119 20q51 21 90 64q41 41 61 98q19 55 19 125v80h-121zM932 625v-625h-170v170q-31 -47 -68 -82q-37 -37 -82 -59
q-43 -23 -94 -31q-51 -10 -108 -10q-74 0 -134 18q-59 19 -104 62q-45 41 -68 96q-22 55 -22 123q0 84 35 147q33 64 100 109q70 45 168 67q98 23 227 23l136 2v18q0 58 -17 107q-16 47 -51 80q-33 32 -80 48.5t-106 16.5q-33 0 -68 -4q-37 -6 -72 -16q-37 -11 -73.5 -27
t-73.5 -39l-2 160q39 16 80 31q39 14 82 22q41 10 88 15q45 4 94 4q96 0 168 -27q69 -29 119 -82q47 -51 71 -131q25 -82 25 -188v2zM451 1520h180l198 -357h-108l-180 244l-181 -244h-108z" />
    <glyph glyph-name="atilde" unicode="&#xe3;" horiz-adv-x="1079" 
d="M627 508q-86 -2 -152 -14q-65 -15 -113 -43q-45 -27 -67 -66q-25 -39 -25 -90q0 -39 15 -70q12 -30 38.5 -55t61.5 -37q33 -12 74 -12q65 0 119 20q51 21 90 64q41 41 61 98q19 55 19 125v80h-121zM932 625v-625h-170v170q-31 -47 -68 -82q-37 -37 -82 -59
q-43 -23 -94 -31q-51 -10 -108 -10q-74 0 -134 18q-59 19 -104 62q-45 41 -68 96q-22 55 -22 123q0 84 35 147q33 64 100 109q70 45 168 67q98 23 227 23l136 2v18q0 58 -17 107q-16 47 -51 80q-33 32 -80 48.5t-106 16.5q-33 0 -68 -4q-37 -6 -72 -16q-37 -11 -73.5 -27
t-73.5 -39l-2 160q39 16 80 31q39 14 82 22q41 10 88 15q45 4 94 4q96 0 168 -27q69 -29 119 -82q47 -51 71 -131q25 -82 25 -188v2zM750 1442h90q-15 -53 -33.5 -90t-43 -62.5t-54.5 -38.5q-31 -12 -68 -12q-4 0 -8 2h-12q-3 0 -5 2h-6q-4 0 -10 2q-6 0 -12 2q-4 0 -6 2h-7
l-98 31l-16 4t-15 2q-8 2 -12 2h-10q-16 0 -31 -4q-14 -4 -26 -12q-11 -8 -19 -23q-10 -14 -16 -32l-92 2q12 47 30 84q19 36 43 61q25 25 55.5 37t69.5 12h19t16 -2h16q7 -2 15 -6l96 -29q4 -2 8 -2q2 -2 6 -2q4 -2 9 -2q2 -2 6 -2h8q2 -2 6 -2q2 -2 6 -2h6q17 0 31 6
q14 4 25 14q12 11 22 25q8 12 17 31v2z" />
    <glyph glyph-name="adieresis" unicode="&#xe4;" horiz-adv-x="1079" 
d="M627 508q-86 -2 -152 -14q-65 -15 -113 -43q-45 -27 -67 -66q-25 -39 -25 -90q0 -39 15 -70q12 -30 38.5 -55t61.5 -37q33 -12 74 -12q65 0 119 20q51 21 90 64q41 41 61 98q19 55 19 125v80h-121zM932 625v-625h-170v170q-31 -47 -68 -82q-37 -37 -82 -59
q-43 -23 -94 -31q-51 -10 -108 -10q-74 0 -134 18q-59 19 -104 62q-45 41 -68 96q-22 55 -22 123q0 84 35 147q33 64 100 109q70 45 168 67q98 23 227 23l136 2v18q0 58 -17 107q-16 47 -51 80q-33 32 -80 48.5t-106 16.5q-33 0 -68 -4q-37 -6 -72 -16q-37 -11 -73.5 -27
t-73.5 -39l-2 160q39 16 80 31q39 14 82 22q41 10 88 15q45 4 94 4q96 0 168 -27q69 -29 119 -82q47 -51 71 -131q25 -82 25 -188v2zM621 1423h172v-188h-172v188zM289 1423h170v-188h-170v188z" />
    <glyph glyph-name="aring" unicode="&#xe5;" horiz-adv-x="1079" 
d="M616 508q-81 -2 -145 -14q-63 -15 -111 -43q-45 -27 -67.5 -66t-22.5 -90q0 -39 15 -70q12 -30 38.5 -55t61.5 -37q33 -12 74 -12q65 0 119 20q51 21 90 64q41 41 61 98q19 55 19 125v80h-132zM932 625v-625h-170v170q-31 -47 -68 -82q-37 -37 -82 -59q-43 -23 -94 -31
q-51 -10 -108 -10q-74 0 -134 18q-59 19 -104 62q-45 41 -68 96q-22 55 -22 123q0 84 35 147q33 64 100 109q70 45 168 67q98 23 227 23l136 2v18q0 58 -17 107q-16 47 -51 80q-33 32 -80 48.5t-106 16.5q-33 0 -68 -4q-37 -6 -72 -16q-37 -11 -73.5 -27t-73.5 -39l-2 160
q39 16 80 31q39 14 82 22q41 10 88 15q45 4 94 4q96 0 168 -27q69 -29 119 -82q47 -51 71 -131q25 -82 25 -188v2zM541 1507q-31 -2 -56 -10q-24 -10 -45 -33q-20 -20 -30 -45q-13 -24 -13 -55q0 -29 10.5 -53.5t30.5 -44.5q23 -21 47 -29q25 -10 56 -10q28 0 53 10
q24 8 44.5 28.5t31 45t10.5 51.5q0 31 -10.5 56.5t-30.5 45.5q-21 23 -45 33q-25 8 -53 8v2zM541 1618q53 -2 96 -21q43 -18 78 -55q37 -35 55 -80q16 -45 16 -98q0 -51 -16 -94q-18 -45 -55 -80q-35 -37 -78 -55.5t-96 -18.5q-54 0 -99 18.5t-80 53.5q-36 37 -53 82
q-18 43 -18 94q0 53 17.5 98t53.5 80q37 37 82 55q43 19 97 19v2z" />
    <glyph glyph-name="ae" unicode="&#xe6;" horiz-adv-x="1706" 
d="M932 627h547q-6 69 -27 123q-20 53 -55 92q-33 39 -80 58.5t-107 19.5q-55 0 -102 -21q-47 -20 -86 -61q-39 -39 -61.5 -93.5t-28.5 -119.5v2zM748 508h-132q-81 -2 -145 -14q-63 -15 -111 -43q-45 -27 -67.5 -66t-22.5 -90q0 -39 15 -70q12 -30 38.5 -55t61.5 -37
q33 -12 74 -12q65 0 119 20q51 21 90 64q41 41 61 98q19 55 19 125v80zM864 887q35 39 74 69q37 31 82 52q47 22 98 32q49 11 107 11q100 0 180 -33q78 -35 135 -105q59 -67 88 -159t29 -209v-53h-727q4 -91 28 -158q25 -70 72 -119t113 -72q63 -24 145 -24q35 0 72 6
q35 4 70 12q34 10 71 25q35 12 72 33v-162q-35 -17 -72 -25q-37 -10 -78 -18q-39 -6 -80 -10q-43 -5 -88 -5q-77 0 -143 15q-65 14 -119 41q-51 28 -94 74.5t-76 105.5q-35 -57 -78 -100t-94 -72t-106 -41q-58 -12 -121 -12q-78 0 -139 18q-64 19 -111 59q-45 43 -68.5 98.5
t-23.5 125.5q0 84 35 149q33 64 100 107q68 45 168 67q98 23 227 23l136 2v18q0 58 -17 107q-16 47 -51 80q-33 32 -80 48.5t-106 16.5q-33 0 -68 -4q-37 -6 -72 -16q-37 -11 -73.5 -27t-73.5 -39l-2 160q39 16 80 31q39 14 80 22q20 4 40.5 8t40 6.5t39.5 4.5h41
q60 0 111 -11q51 -10 94 -32q43 -21 78 -52q33 -30 55 -71v2z" />
    <glyph glyph-name="ccedilla" unicode="&#xe7;" horiz-adv-x="950" 
d="M885 991l-17 -164q-22 13 -47 23q-26 8 -55 16q-29 6 -57 11q-31 4 -62 4q-78 0 -141 -25q-66 -27 -115 -78t-74 -116q-24 -66 -24 -150q0 -82 24 -150q23 -67 70 -118t113 -76q63 -27 141 -27q29 0 59 4q29 5 58 11q28 8 59 20q31 10 62 25l10 -166q-33 -15 -66 -23
q-32 -10 -67 -12q-35 -4 -70 -6q-37 -4 -74 -4q-118 0 -213 35q-94 32 -166 104q-69 72 -106 168q-37 94 -37 213q0 117 37 213q37 94 110.5 166t172 107.5t219.5 35.5q35 0 68.5 -2t66.5 -8q31 -4 61 -12q31 -9 60 -21v2zM473 0h80v-100h18q54 0 95 -13q41 -12 69 -34
q29 -23 43 -56q15 -35 15 -78q0 -45 -15 -77q-16 -35 -45 -60q-31 -22 -76 -35q-45 -12 -104 -12q-27 0 -55 4q-29 2 -60 6q-32 6 -65 15q-35 6 -76 16v94q47 -10 86 -16q37 -8 63 -12q29 -4 51.5 -7.5t37.5 -3.5q32 0 56.5 6.5t39.5 16.5q14 8 22 24q6 17 6 39q0 25 -8 43
q-8 19 -24.5 29t-42.5 16q-27 7 -64 7h-14q-8 0 -12 -2h-9h-10z" />
    <glyph glyph-name="egrave" unicode="&#xe8;" horiz-adv-x="1053" 
d="M1004 547v-78h-730q7 -84 33 -147q27 -66 74 -113q47 -45 111 -68q63 -22 145 -22q35 0 72 6q34 4 67 12q35 10 72 25q37 12 74 33v-162q-33 -17 -70 -25q-39 -10 -80 -18q-39 -6 -84 -10.5t-92 -4.5q-119 0 -211 35t-160 109q-67 74 -100 176q-35 100 -35 225
q0 121 35 217q33 94 98 168q66 72 154 109q86 37 192 37q103 0 183 -33q77 -35 135 -103q59 -67 88 -159q29 -94 29 -211v2zM823 596q-4 76 -22 135q-21 57 -56 98q-34 41 -79 62q-48 20 -107 20q-57 0 -104 -20q-47 -23 -84 -64q-39 -43 -60 -100q-22 -59 -30 -133z
M303 1520h189l204 -357h-106z" />
    <glyph glyph-name="eacute" unicode="&#xe9;" horiz-adv-x="1053" 
d="M1004 547v-78h-730q7 -84 33 -147q27 -66 74 -113q47 -45 111 -68q63 -22 145 -22q35 0 72 6q34 4 67 12q35 10 72 25q37 12 74 33v-162q-33 -17 -70 -25q-39 -10 -80 -18q-39 -6 -84 -10.5t-92 -4.5q-119 0 -211 35t-160 109q-67 74 -100 176q-35 100 -35 225
q0 121 35 217q33 94 98 168q66 72 154 109q86 37 192 37q103 0 183 -33q77 -35 135 -103q59 -67 88 -159q29 -94 29 -211v2zM823 596q-4 76 -22 135q-21 57 -56 98q-34 41 -79 62q-48 20 -107 20q-57 0 -104 -20q-47 -23 -84 -64q-39 -43 -60 -100q-22 -59 -30 -133z
M625 1520h186l-285 -357h-106z" />
    <glyph glyph-name="ecircumflex" unicode="&#xea;" horiz-adv-x="1053" 
d="M1004 547v-78h-730q7 -84 33 -147q27 -66 74 -113q47 -45 111 -68q63 -22 145 -22q35 0 72 6q34 4 67 12q35 10 72 25q37 12 74 33v-162q-33 -17 -70 -25q-39 -10 -80 -18q-39 -6 -84 -10.5t-92 -4.5q-119 0 -211 35t-160 109q-67 74 -100 176q-35 100 -35 225
q0 121 35 217q33 94 98 168q66 72 154 109q86 37 192 37q103 0 183 -33q77 -35 135 -103q59 -67 88 -159q29 -94 29 -211v2zM823 596q-4 76 -22 135q-21 57 -56 98q-34 41 -79 62q-48 20 -107 20q-57 0 -104 -20q-47 -23 -84 -64q-39 -43 -60 -100q-22 -59 -30 -133z
M469 1520h178l201 -357h-111l-180 244l-178 -244h-111z" />
    <glyph glyph-name="edieresis" unicode="&#xeb;" horiz-adv-x="1053" 
d="M1004 547v-78h-730q7 -84 33 -147q27 -66 74 -113q47 -45 111 -68q63 -22 145 -22q35 0 72 6q34 4 67 12q35 10 72 25q37 12 74 33v-162q-33 -17 -70 -25q-39 -10 -80 -18q-39 -6 -84 -10.5t-92 -4.5q-119 0 -211 35t-160 109q-67 74 -100 176q-35 100 -35 225
q0 121 35 217q33 94 98 168q66 72 154 109q86 37 192 37q103 0 183 -33q77 -35 135 -103q59 -67 88 -159q29 -94 29 -211v2zM823 596q-4 76 -22 135q-21 57 -56 98q-34 41 -79 62q-48 20 -107 20q-57 0 -104 -20q-47 -23 -84 -64q-39 -43 -60 -100q-22 -59 -30 -133z
M639 1423h170v-188h-170v188zM305 1423h170v-188h-170v188z" />
    <glyph glyph-name="igrave" unicode="&#xec;" horiz-adv-x="512" 
d="M160 1026h190v-1026h-190v1026zM0 1520h188l205 -357h-106z" />
    <glyph glyph-name="iacute" unicode="&#xed;" horiz-adv-x="512" 
d="M160 1026h190v-1026h-190v1026zM322 1520h188l-287 -357h-106z" />
    <glyph glyph-name="icircumflex" unicode="&#xee;" horiz-adv-x="512" 
d="M160 1026h190v-1026h-190v1026zM166 1520h178l201 -357h-111l-178 244l-180 -244h-109z" />
    <glyph glyph-name="idieresis" unicode="&#xef;" horiz-adv-x="512" 
d="M160 1026h190v-1026h-190v1026zM336 1423h172v-188h-172v188zM2 1423h170v-188h-170v188z" />
    <glyph glyph-name="eth" unicode="&#xf0;" horiz-adv-x="1200" 
d="M600 895q-68 -2 -123 -29q-55 -26 -96 -80q-43 -53 -64 -122q-20 -72 -20 -158t20 -156q21 -69 64 -123q41 -51 96 -77.5t123 -26.5q70 0 125 26.5t98 77.5q41 54 61.5 122.5t20.5 156.5t-20 160q-21 69 -62 120q-41 54 -96 80q-55 27 -127 27v2zM530 1532q17 -21 43 -49
q27 -31 66 -74l16 -16q7 -9 11 -13l233 119l53 -90l-213 -113q90 -108 158 -213q68 -104 113 -206q47 -101 69 -193q23 -94 23 -180q0 -123 -35 -219q-35 -99 -102.5 -170.5t-159.5 -106.5t-207 -35q-113 0 -203 35q-92 35 -159.5 106.5t-102.5 170.5q-35 96 -35 219
q0 121 35 219q33 96 100 170q68 74 158 111q90 34 203 34q22 0 47 -2q23 -2 43 -6q23 -4 44.5 -10t41.5 -16q-27 45 -49 79q-25 35 -43 62q-19 24 -37 46.5t-35 41.5l-229 -121l-49 94l211 111q-29 33 -56.5 62.5t-52.5 56.5q-27 26 -51 51q-25 22 -49 43z" />
    <glyph glyph-name="ntilde" unicode="&#xf1;" horiz-adv-x="1200" 
d="M1055 621v-621h-193v578q0 75 -12 135q-14 57 -43 96q-27 39 -70 58.5t-102 19.5q-64 0 -115 -25q-51 -24 -88 -74q-37 -47 -55.5 -114.5t-18.5 -153.5v-520h-188v1026h172v-188q29 51 66 92q36 39 81 65q48 29 101 43q51 13 110 13q88 0 154 -27q66 -29 111 -84t67 -135
q23 -80 23 -187v3zM831 1442h91q-15 -53 -33.5 -90t-43 -62.5t-54.5 -38.5q-31 -12 -66 -12h-8t-8 2q-4 0 -9 2h-8t-10 2q-6 0 -12 2q-4 0 -6 2h-7l-98 31l-16 4t-15 2q-8 2 -12 2h-10q-17 0 -31 -4t-26 -12q-11 -8 -19 -23q-10 -14 -16 -32l-92 2q12 47 30 84q19 36 43 61
q25 25 55.5 37t69.5 12h19q8 0 16 -2h16q7 -2 15 -6l96 -29q8 -4 16 -4q7 -2 13 -4h8q2 -2 6 -2q2 -2 6 -2h6q17 0 31 6q14 4 25 14q12 11 22 25q8 12 16 31v2z" />
    <glyph glyph-name="ograve" unicode="&#xf2;" horiz-adv-x="1200" 
d="M600 905q-68 -2 -123 -28.5t-98 -80t-64 -122.5q-20 -72 -20 -162q0 -86 20 -156q21 -71 64 -125q43 -53 98 -79.5t123 -26.5q72 0 127 26.5t96 77.5q43 54 63.5 124.5t20.5 158.5q0 90 -20.5 161.5t-63.5 123.5q-41 53 -96 79.5t-127 26.5v2zM598 1053q121 -2 213 -39
t162 -109q67 -71 102 -170q33 -98 33 -225q0 -123 -33 -221q-35 -99 -104 -172q-68 -72 -160 -107q-94 -35 -213 -35q-117 0 -209 35t-162 107q-67 71 -102 169.5t-35 223.5q0 127 35 225q35 99 102 170q70 72 162 109t209 37v2zM346 1520h189l204 -357h-106z" />
    <glyph glyph-name="oacute" unicode="&#xf3;" horiz-adv-x="1200" 
d="M600 905q-68 -2 -123 -28.5t-98 -80t-64 -122.5q-20 -72 -20 -162q0 -86 20 -156q21 -71 64 -125q43 -53 98 -79.5t123 -26.5q72 0 127 26.5t96 77.5q43 54 63.5 124.5t20.5 158.5q0 90 -20.5 161.5t-63.5 123.5q-41 53 -96 79.5t-127 26.5v2zM598 1053q121 -2 213 -39
t162 -109q67 -71 102 -170q33 -98 33 -225q0 -123 -33 -221q-35 -99 -104 -172q-68 -72 -160 -107q-94 -35 -213 -35q-117 0 -209 35t-162 107q-67 71 -102 169.5t-35 223.5q0 127 35 225q35 99 102 170q70 72 162 109t209 37v2zM668 1520h186l-285 -357h-106z" />
    <glyph glyph-name="ocircumflex" unicode="&#xf4;" horiz-adv-x="1200" 
d="M600 905q-68 -2 -123 -28.5t-98 -80t-64 -122.5q-20 -72 -20 -162q0 -86 20 -156q21 -71 64 -125q43 -53 98 -79.5t123 -26.5q72 0 127 26.5t96 77.5q43 54 63.5 124.5t20.5 158.5q0 90 -20.5 161.5t-63.5 123.5q-41 53 -96 79.5t-127 26.5v2zM598 1053q121 -2 213 -39
t162 -109q67 -71 102 -170q33 -98 33 -225q0 -123 -33 -221q-35 -99 -104 -172q-68 -72 -160 -107q-94 -35 -213 -35q-117 0 -209 35t-162 107q-67 71 -102 169.5t-35 223.5q0 127 35 225q35 99 102 170q70 72 162 109t209 37v2zM512 1520h178l201 -357h-111l-180 244
l-178 -244h-111z" />
    <glyph glyph-name="otilde" unicode="&#xf5;" horiz-adv-x="1200" 
d="M600 905q-68 -2 -123 -28.5t-98 -80t-64 -122.5q-20 -72 -20 -162q0 -86 20 -156q21 -71 64 -125q43 -53 98 -79.5t123 -26.5q72 0 127 26.5t96 77.5q43 54 63.5 124.5t20.5 158.5q0 90 -20.5 161.5t-63.5 123.5q-41 53 -96 79.5t-127 26.5v2zM598 1053q121 -2 213 -39
t162 -109q67 -71 102 -170q33 -98 33 -225q0 -123 -33 -221q-35 -99 -104 -172q-68 -72 -160 -107q-94 -35 -213 -35q-117 0 -209 35t-162 107q-67 71 -102 169.5t-35 223.5q0 127 35 225q35 99 102 170q70 72 162 109t209 37v2zM809 1442h90q-12 -53 -31 -90
q-18 -37 -43 -62q-24 -26 -55 -39q-31 -12 -68 -12q-8 0 -14 2q-8 0 -16 2q-4 0 -8 2h-9q-2 0 -4 2h-2q-4 0 -6 2h-6l-98 31q-9 2 -17 4q-10 2 -16 2q-2 0 -4 2h-6h-7h-6q-14 0 -28.5 -4t-26.5 -12q-10 -8 -18 -23q-11 -14 -19 -32l-92 2q14 47 32.5 83.5t43 61.5t55.5 37
t70 12h18t17 -2h16q6 -2 12 -6l99 -29q4 -2 8 -2q2 -2 6 -2q4 -2 8 -2q2 -2 6 -2q6 -2 12 -2q7 -2 15 -2q16 0 31 6q14 4 24 14q12 11 23 25q8 12 14 31v2z" />
    <glyph glyph-name="odieresis" unicode="&#xf6;" horiz-adv-x="1200" 
d="M600 905q-68 -2 -123 -28.5t-98 -80t-64 -122.5q-20 -72 -20 -162q0 -86 20 -156q21 -71 64 -125q43 -53 98 -79.5t123 -26.5q72 0 127 26.5t96 77.5q43 54 63.5 124.5t20.5 158.5q0 90 -20.5 161.5t-63.5 123.5q-41 53 -96 79.5t-127 26.5v2zM598 1053q121 -2 213 -39
t162 -109q67 -71 102 -170q33 -98 33 -225q0 -123 -33 -221q-35 -99 -104 -172q-68 -72 -160 -107q-94 -35 -213 -35q-117 0 -209 35t-162 107q-67 71 -102 169.5t-35 223.5q0 127 35 225q35 99 102 170q70 72 162 109t209 37v2zM682 1423h170v-188h-170v188zM348 1423h170
v-188h-170v188z" />
    <glyph glyph-name="divide" unicode="&#xf7;" horiz-adv-x="1706" 
d="M852 367q27 -2 48.5 -11.5t39.5 -27.5q21 -19 31 -41q8 -23 8 -47q0 -27 -8 -50q-10 -22 -29 -40q-18 -17 -41 -25q-22 -10 -49 -10t-47 8q-23 8 -41.5 26.5t-26.5 40.5q-10 23 -10 50q0 24 10 47q8 22 29 41q18 18 41 28q20 9 45 9v2zM1450 680v-139h-1196v139h1196z
M852 1106q27 -2 48.5 -12.5t39.5 -28.5q21 -18 31 -41q8 -23 8 -47q0 -27 -8 -47q-10 -23 -29 -41q-18 -19 -41 -29q-22 -10 -49 -10q-25 0 -47 10q-23 8 -41.5 26.5t-26.5 41.5q-10 22 -10 49q0 24 10 47q8 23 29 41q18 18 41 29q20 10 45 10v2z" />
    <glyph glyph-name="oslash" unicode="&#xf8;" horiz-adv-x="1200" 
d="M870 729l-464 -528q16 -21 37.5 -35t48.5 -25q26 -8 55 -12q26 -6 55 -6q72 0 129 27q55 26 98 79q41 54 64 127q20 72 20 162q0 29 -2 56.5t-8 54.5q-4 26 -12 51q-10 25 -21 47v2zM801 834q-21 16 -43 32q-25 15 -49 23q-23 8 -50.5 12t-60.5 4q-70 0 -125 -26.5
t-98 -81.5q-43 -54 -64.5 -125.5t-21.5 -161.5v-18v-19q2 -18 4 -37q2 -18 6 -37q6 -26 14 -51q9 -26 21 -49zM1059 1120l92 -82l-147 -168q24 -34 43 -73q18 -41 32 -88q15 -47 23 -99q6 -53 6 -108q0 -119 -35 -215.5t-104 -167.5q-70 -74 -160 -109t-205 -35
q-45 0 -88 6.5t-84 18.5q-39 8 -76 26.5t-65 41.5l-148 -160l-92 84l148 166q-27 35 -47.5 74.5t-34.5 84.5q-13 45 -19 95q-8 47 -8 98q0 123 35 221t104 172q70 74 162 111q90 37 205 37q47 0 90 -7q43 -6 82 -18q41 -12 78 -29q35 -18 65 -43z" />
    <glyph glyph-name="ugrave" unicode="&#xf9;" horiz-adv-x="1200" 
d="M145 1026h193v-567q0 -82 14 -140q15 -59 41 -98q29 -37 72 -55q41 -19 98 -19q68 0 119 27q51 25 86 76q35 53 53 127q19 74 19 174v475h188v-1026h-174v199q-27 -56 -63.5 -97t-79.5 -67q-45 -27 -97.5 -37t-113.5 -10q-88 0 -154 24q-65 25 -110 80q-46 53 -68 135
q-23 80 -23 187v612zM346 1520h189l204 -357h-106z" />
    <glyph glyph-name="uacute" unicode="&#xfa;" horiz-adv-x="1200" 
d="M145 1026h193v-567q0 -82 14 -140q15 -59 41 -98q29 -37 72 -55q41 -19 98 -19q68 0 119 27q51 25 86 76q35 53 53 127q19 74 19 174v475h188v-1026h-174v199q-27 -56 -63.5 -97t-79.5 -67q-45 -27 -97.5 -37t-113.5 -10q-88 0 -154 24q-65 25 -110 80q-46 53 -68 135
q-23 80 -23 187v612zM668 1520h186l-285 -357h-106z" />
    <glyph glyph-name="ucircumflex" unicode="&#xfb;" horiz-adv-x="1200" 
d="M145 1026h193v-567q0 -82 14 -140q15 -59 41 -98q29 -37 72 -55q41 -19 98 -19q68 0 119 27q51 25 86 76q35 53 53 127q19 74 19 174v475h188v-1026h-174v199q-27 -56 -63.5 -97t-79.5 -67q-45 -27 -97.5 -37t-113.5 -10q-88 0 -154 24q-65 25 -110 80q-46 53 -68 135
q-23 80 -23 187v612zM512 1520h178l201 -357h-111l-180 244l-178 -244h-111z" />
    <glyph glyph-name="udieresis" unicode="&#xfc;" horiz-adv-x="1200" 
d="M145 1026h193v-567q0 -82 14 -140q15 -59 41 -98q29 -37 72 -55q41 -19 98 -19q68 0 119 27q51 25 86 76q35 53 53 127q19 74 19 174v475h188v-1026h-174v199q-27 -56 -63.5 -97t-79.5 -67q-45 -27 -97.5 -37t-113.5 -10q-88 0 -154 24q-65 25 -110 80q-46 53 -68 135
q-23 80 -23 187v612zM682 1423h170v-188h-170v188zM348 1423h170v-188h-170v188z" />
    <glyph glyph-name="yacute" unicode="&#xfd;" horiz-adv-x="975" 
d="M25 1026h202l281 -844l274 844h195l-410 -1128q-32 -95 -69 -160q-37 -68 -80 -107q-41 -39 -94.5 -57t-118.5 -18h-29q-16 0 -33 2q-6 0 -10 2q-6 0 -12 2q-10 2 -21 4q-10 0 -20 4l14 158q15 -4 27 -7l20 -4q11 -2 23 -2q10 -2 20 -2q35 0 66 14.5t57 43.5
q27 28 52.5 76.5t52.5 113.5zM553 1520h186l-284 -357h-109z" />
    <glyph glyph-name="thorn" unicode="&#xfe;" horiz-adv-x="1221" 
d="M928 520q0 88 -19 158q-18 67 -55 117q-37 51 -86 75q-51 25 -117 25q-65 0 -116 -25q-54 -24 -95 -77q-41 -52 -61.5 -121.5t-20.5 -155.5q0 -88 21 -158q18 -71 57 -125q39 -51 91.5 -77.5t115.5 -26.5q66 0 117 26.5t90 77.5q39 54 59 125q19 72 19 160v2zM170 1530
h188v-678q31 47 68 86q37 37 82 61q45 25 98 39q51 13 109 13q92 0 168 -37q73 -37 131 -109q57 -71 86 -166q26 -96 26 -217t-28 -219q-31 -98 -90 -174q-58 -74 -136 -109q-79 -34 -178 -34q-53 0 -102 10t-90 31q-43 22 -78 57q-37 35 -66 80v-590h-188v1956z" />
    <glyph glyph-name="ydieresis" unicode="&#xff;" horiz-adv-x="975" 
d="M25 1026h202l281 -844l274 844h195l-410 -1128q-32 -95 -69 -160q-37 -68 -80 -107q-41 -39 -94.5 -57t-118.5 -18h-29q-16 0 -33 2q-6 0 -10 2q-6 0 -12 2q-10 2 -21 4q-10 0 -20 4l14 158q15 -4 27 -7l20 -4q11 -2 23 -2q10 -2 20 -2q35 0 66 14.5t57 43.5
q27 28 52.5 76.5t52.5 113.5zM565 1423h172v-188h-172v188zM233 1423h170v-188h-170v188z" />
    <glyph glyph-name="Abreve" unicode="&#x102;" 
 />
    <glyph glyph-name="abreve" unicode="&#x103;" 
 />
    <glyph glyph-name="Aogonek" unicode="&#x104;" 
 />
    <glyph glyph-name="aogonek" unicode="&#x105;" 
 />
    <glyph glyph-name="Cacute" unicode="&#x106;" horiz-adv-x="1247" 
d="M1194 1368l-6 -172q-41 16 -80 29q-41 12 -82 20q-39 10 -78 15q-41 4 -82 4q-127 0 -227 -37q-102 -39 -178 -113q-76 -76 -113 -176q-39 -100 -39 -227q0 -129 39 -230q37 -102 113 -176q74 -72 176 -108.5t231 -36.5q41 0 82 4q39 2 78 10q41 8 80 21q37 10 76 24
l6 -176q-39 -12 -78 -20q-39 -11 -82 -17q-41 -6 -86 -6q-45 -2 -92 -2q-174 0 -311.5 45t-237.5 139q-100 97 -151.5 226t-51.5 290q0 166 54 299q51 131 153 230q103 96 240 145t311 49q47 0 92 -2q45 -4 86 -10q43 -8 82 -16q39 -11 76 -27v2zM866 1915h189l-287 -356
h-106z" />
    <glyph glyph-name="cacute" unicode="&#x107;" horiz-adv-x="950" 
d="M885 991l-17 -164q-22 13 -47 23q-26 8 -55 16q-29 6 -57 11q-31 4 -62 4q-78 0 -141 -25q-66 -27 -115 -78t-74 -116q-24 -66 -24 -150q0 -82 24 -150q23 -67 70 -118t113 -76q63 -27 141 -27q29 0 59 4q29 5 58 11q28 8 59 20q31 10 62 25l10 -166q-33 -15 -66 -23
q-32 -10 -67 -12q-35 -4 -70 -6q-37 -4 -74 -4q-118 0 -213 35q-94 32 -166 104q-69 72 -106 168q-37 94 -37 213q0 117 37 213q37 94 110.5 166t172 107.5t219.5 35.5q35 0 68.5 -2t66.5 -8q31 -4 61 -12q31 -9 60 -21v2zM639 1520h188l-284 -357h-109z" />
    <glyph glyph-name="Ccaron" unicode="&#x10c;" horiz-adv-x="1247" 
d="M1194 1368l-6 -172q-41 16 -80 29q-41 12 -82 20q-39 10 -78 15q-41 4 -82 4q-127 0 -227 -37q-102 -39 -178 -113q-76 -76 -113 -176q-39 -100 -39 -227q0 -129 39 -230q37 -102 113 -176q74 -72 176 -108.5t231 -36.5q41 0 82 4q39 2 78 10q41 8 80 21q37 10 76 24
l6 -176q-39 -12 -78 -20q-39 -11 -82 -17q-41 -6 -86 -6q-45 -2 -92 -2q-174 0 -311.5 45t-237.5 139q-100 97 -151.5 226t-51.5 290q0 166 54 299q51 131 153 230q103 96 240 145t311 49q47 0 92 -2q45 -4 86 -10q43 -8 82 -16q39 -11 76 -27v2zM512 1915h109l180 -248
l180 248h109l-199 -356h-180z" />
    <glyph glyph-name="ccaron" unicode="&#x10d;" horiz-adv-x="950" 
d="M885 991l-17 -164q-22 13 -47 23q-26 8 -55 16q-29 6 -57 11q-31 4 -62 4q-78 0 -141 -25q-66 -27 -115 -78t-74 -116q-24 -66 -24 -150q0 -82 24 -150q23 -67 70 -118t113 -76q63 -27 141 -27q29 0 59 4q29 5 58 11q28 8 59 20q31 10 62 25l10 -166q-33 -15 -66 -23
q-32 -10 -67 -12q-35 -4 -70 -6q-37 -4 -74 -4q-118 0 -213 35q-94 32 -166 104q-69 72 -106 168q-37 94 -37 213q0 117 37 213q37 94 110.5 166t172 107.5t219.5 35.5q35 0 68.5 -2t66.5 -8q31 -4 61 -12q31 -9 60 -21v2zM285 1520h108l180 -246l181 246h108l-198 -357
h-181z" />
    <glyph glyph-name="Dcaron" unicode="&#x10e;" 
 />
    <glyph glyph-name="dcaron" unicode="&#x10f;" 
 />
    <glyph glyph-name="Dslash" unicode="&#x110;" 
 />
    <glyph glyph-name="dslash" unicode="&#x111;" horiz-adv-x="1245" 
d="M565 903q-59 -2 -108 -26q-49 -27 -86 -80q-37 -52 -56 -121q-18 -72 -18 -162q0 -88 18 -156q19 -69 56 -122q37 -52 88 -76q49 -27 110 -27q66 0 119 26.5t92 78.5q39 53 60 122q18 68 18 154q0 90 -18.5 162t-59.5 123q-39 53 -92 77.5t-123 24.5v2zM858 1530h193
v-191h170v-110h-170v-1229h-174v209q-31 -59 -68 -100q-39 -43 -84 -72q-45 -27 -96 -39q-54 -12 -115 -12q-90 0 -166 37q-76 34 -135 110q-57 78 -88 176q-31 99 -31 217q0 119 31 215q29 95 86 166q59 72 137 109q76 35 170 35q57 0 107 -13q49 -12 92 -37q43 -22 80 -57
q34 -37 61 -84v369h-317v110h317v191z" />
    <glyph glyph-name="Eogonek" unicode="&#x118;" 
 />
    <glyph glyph-name="eogonek" unicode="&#x119;" 
 />
    <glyph glyph-name="Ecaron" unicode="&#x11a;" 
 />
    <glyph glyph-name="ecaron" unicode="&#x11b;" 
 />
    <glyph glyph-name="Gbreve" unicode="&#x11e;" horiz-adv-x="1454" 
d="M1264 1358l-29 -168q-41 18 -84 35q-43 14 -86 24q-45 11 -90 17q-45 4 -92 4q-129 0 -232 -39q-102 -39 -180 -117t-117 -180q-39 -105 -39 -232q0 -124 39 -225.5t117 -177.5t180 -113q103 -36 234 -36q28 0 59 2q29 2 55 8q29 4 55.5 12t53.5 18v435h-297v153h492
v-710q-50 -21 -101 -33q-53 -15 -108 -25q-54 -8 -111 -10q-57 -4 -117 -4q-174 0 -311 47q-139 45 -242 141q-102 97 -153 228q-51 129 -51 295q0 163 51 294q51 132 155 228q103 98 242 147q139 47 313 47q52 0 101 -2q49 -4 96 -14q49 -8 98 -21.5t99 -29.5v2zM442 1872
l93 2q4 -41 18 -68q12 -28 35 -47q22 -16 59 -24q35 -11 80 -11q47 0 82 11q35 8 59 26q23 19 35 45q12 27 15 64l96 4q-6 -74 -25 -125q-20 -53 -55 -88q-33 -33 -84 -49q-53 -17 -123 -17q-68 0 -119 19q-51 16 -86 49t-53 86q-20 51 -27 121v2z" />
    <glyph glyph-name="gbreve" unicode="&#x11f;" horiz-adv-x="1210" 
d="M571 901q-61 -2 -110 -27q-49 -24 -86 -75t-56.5 -119t-19.5 -156q0 -86 19.5 -153.5t56.5 -118.5q39 -51 88 -76q49 -24 110 -24q66 0 119 24q51 25 90 76t60 119q18 65 18 147q0 90 -18.5 160t-57.5 121t-92 75q-53 25 -121 25v2zM881 844v182h174v-909
q0 -140 -31 -246q-33 -109 -98 -178q-64 -72 -160 -107t-223 -35q-45 0 -90 4.5t-91 12.5q-43 8 -83 20q-41 13 -80 29l14 170q41 -20 80 -35.5t76 -25.5q39 -11 74.5 -17t68.5 -6q86 0 154 27q65 24 112 73q47 50 69.5 120.5t22.5 158.5v125q-30 -53 -67 -92t-80 -66
q-45 -26 -94 -37.5t-103 -11.5q-94 0 -172 35t-137 104q-57 72 -88 166t-31 209q0 123 31 221q29 99 88 170q59 72 137 109t174 37q60 0 111 -13.5t96 -40.5q45 -26 82 -65q35 -39 64 -90v2zM319 1477l93 2q4 -41 18 -68q12 -29 35 -47q22 -16 59 -25q35 -10 80 -10
q47 0 82 9.5t58.5 27.5t35.5 45q13 27 15 64l96 4q-6 -74 -25 -125q-20 -54 -55 -86.5t-86 -48.5q-51 -19 -121 -19q-67 0 -119 19q-51 16 -86 49q-34 35 -55 86q-20 51 -25 121v2z" />
    <glyph glyph-name="Idotaccent" unicode="&#x130;" horiz-adv-x="551" 
d="M174 1419h201v-1419h-201v1419zM184 1827h181v-205h-181v205z" />
    <glyph glyph-name="dotlessi" unicode="&#x131;" horiz-adv-x="512" 
d="M160 1026h190v-1026h-190v1026z" />
    <glyph glyph-name="Lacute" unicode="&#x139;" 
 />
    <glyph glyph-name="lacute" unicode="&#x13a;" 
 />
    <glyph glyph-name="Lcaron" unicode="&#x13d;" 
 />
    <glyph glyph-name="lcaron" unicode="&#x13e;" 
 />
    <glyph glyph-name="Ldot" unicode="&#x13f;" 
 />
    <glyph glyph-name="ldot" unicode="&#x140;" 
 />
    <glyph glyph-name="Lslash" unicode="&#x141;" horiz-adv-x="983" 
d="M209 1419h201v-534l280 196v-157l-280 -199v-559h567v-166h-768v635l-176 -123v160l176 121v626z" />
    <glyph glyph-name="lslash" unicode="&#x142;" horiz-adv-x="580" 
d="M201 1530h188v-633l164 113v-133l-164 -113v-764h-188v672l-160 -113v133l160 115v723z" />
    <glyph glyph-name="Nacute" unicode="&#x143;" 
 />
    <glyph glyph-name="nacute" unicode="&#x144;" 
 />
    <glyph glyph-name="Ncaron" unicode="&#x147;" 
 />
    <glyph glyph-name="ncaron" unicode="&#x148;" 
 />
    <glyph glyph-name="Odblacute" unicode="&#x150;" 
 />
    <glyph glyph-name="odblacute" unicode="&#x151;" 
 />
    <glyph glyph-name="OE" unicode="&#x152;" horiz-adv-x="1903" 
d="M989 1266q-43 2 -76 4q-32 2 -55 4q-22 2 -41 4h-37q-114 0 -202.5 -37t-147.5 -108q-59 -70 -90 -175q-31 -104 -31 -241q0 -139 31 -246q31 -106 88 -180q59 -76 145 -113t197 -37q23 0 76 4q53 2 135 11l8 4v1106zM1065 1419h688v-151h-565v-453h532v-160h-532v-491
h584v-164h-721h-70q-41 -2 -92 -4q-51 -4 -88 -4h-60q-149 0 -266 45q-119 45 -203 139t-127 226.5t-43 302.5q0 176 45 311q43 133 132 227q90 94 217 141q125 48 286 48h62q35 -2 80 -7q47 -4 84 -6q34 -2 57 -2v2z" />
    <glyph glyph-name="oe" unicode="&#x153;" horiz-adv-x="1870" 
d="M295 514q0 -88 20 -158q21 -71 64 -125q43 -53 98 -79.5t121 -26.5q72 0 129 27q55 26 96 77q43 54 63.5 124.5t20.5 158.5q0 90 -20.5 161.5t-61.5 123.5q-43 53 -98 79.5t-125 26.5t-125 -26.5t-98 -80t-64 -122.5q-20 -72 -20 -162v2zM1098 596h542q-4 76 -22 135
q-21 57 -55 98q-33 41 -80 61.5t-107 20.5q-55 0 -102 -20q-47 -23 -86 -66q-39 -45 -62 -102q-22 -57 -28 -129v2zM1006 846q34 49 75 88q41 37 90 63q50 27 105 40.5t117 13.5q98 0 178 -33q78 -35 135 -103q57 -67 86 -159q29 -94 29 -211v-76h-725q4 -84 30 -147
q27 -66 74 -113q47 -45 111 -68q63 -22 143 -22q25 0 48.5 2t45.5 6q13 2 25 6q10 2 22 4q35 10 72 25q35 12 72 33v-162q-35 -17 -72 -25q-39 -10 -78 -18q-39 -6 -78 -10q-38 -5 -79 -5q-76 0 -140.5 12.5t-117.5 37.5q-54 26 -95 67q-43 39 -73 90q-39 -51 -82 -90
q-45 -41 -99 -67q-51 -25 -108 -37q-60 -13 -125 -13q-115 0 -205 35q-92 35 -160 109q-69 71 -102 170q-35 98 -35 221t35 221q33 98 100 172q68 74 158 111q88 37 201 37q71 0 135 -13q61 -14 115 -41q53 -26 96 -63q43 -39 76 -90v2z" />
    <glyph glyph-name="Racute" unicode="&#x154;" 
 />
    <glyph glyph-name="racute" unicode="&#x155;" 
 />
    <glyph glyph-name="Rcaron" unicode="&#x158;" 
 />
    <glyph glyph-name="rcaron" unicode="&#x159;" 
 />
    <glyph glyph-name="Sacute" unicode="&#x15a;" 
 />
    <glyph glyph-name="sacute" unicode="&#x15b;" 
 />
    <glyph glyph-name="Scedilla" unicode="&#x15e;" horiz-adv-x="1073" 
d="M907 1382l-18 -174q-33 15 -68 27t-69 20q-33 9 -70 13t-76 4q-63 0 -112 -12q-52 -13 -88 -37q-37 -23 -54.5 -56.5t-17.5 -74.5q0 -33 12 -62q12 -31 37 -59q23 -27 76 -62q53 -37 135 -82q104 -57 178 -110t113 -101q41 -47 61 -100q19 -55 19 -117q0 -90 -33 -163
q-35 -74 -101 -134q-65 -57 -151 -84q-86 -26 -188 -26q-52 0 -99 4q-49 2 -96 6q-45 10 -86 23q-43 10 -84 24l18 195q45 -25 88 -41q43 -19 82 -31q41 -10 82 -14q39 -6 78 -6q64 0 115 14q49 14 88 41q37 29 57 65q19 37 19 82q0 72 -74 150q-76 78 -225 164
q-27 14 -45.5 25.5t-30.5 19.5q-57 32 -103 73q-45 39 -77 86q-33 48 -49.5 97t-16.5 98q0 84 33 150q31 65 94 114q64 49 150 74t194 25q41 0 80 -3.5t78 -9.5t76 -14q36 -10 69 -23v2zM451 0h79v-100h19q53 0 94 -13q41 -12 68 -34q28 -23 43 -56q14 -35 14 -78
q0 -45 -14 -77q-15 -35 -45 -60q-31 -22 -74 -35q-45 -12 -105 -12q-26 0 -55 4q-29 2 -61 6q-31 6 -66 15q-35 6 -74 16v94q48 -10 84 -16q37 -8 64 -12q29 -4 51 -7q23 -4 39 -4q33 0 56.5 6.5t37.5 16.5q17 8 25 24q6 17 6 39q0 25 -8 43q-11 19 -27 29q-14 10 -41 16
q-29 7 -63 7h-17t-12 -2h-6h-10z" />
    <glyph glyph-name="scedilla" unicode="&#x15f;" horiz-adv-x="858" 
d="M739 999l-8 -153q-31 12 -61 22q-33 11 -66 19t-65 12q-33 2 -68 2q-39 0 -70 -6q-30 -8 -55 -25q-22 -16 -35 -36q-12 -21 -12 -50q0 -22 10 -43.5t29 -40.5q20 -18 61 -41q39 -24 101 -53q80 -37 137 -74q55 -36 86 -71q29 -35 45 -78q14 -43 14 -92q0 -70 -26 -125
q-29 -57 -86 -98q-56 -41 -131 -60q-76 -18 -172 -18q-35 0 -70 4q-35 2 -70 6q-32 4 -65 14q-35 9 -68 23l6 162q35 -21 72 -33q35 -12 68 -23q34 -8 69 -12q33 -6 66 -6q47 0 86 10q37 10 63 31q29 20 43 49q13 27 13 61q0 25 -9 48q-8 22 -24.5 40.5t-54.5 43.5
q-39 22 -101 53q-80 39 -135 75.5t-86 69.5q-31 35 -45 76q-14 39 -14 84q0 61 25.5 110.5t76.5 86t118.5 55t151.5 18.5q31 0 64 -2q31 -2 63 -6q33 -4 66 -12q31 -8 63 -19v2zM340 0h82v-100h16q54 0 94 -13q41 -12 70 -34.5t43 -55.5q14 -35 14 -78q0 -45 -14 -77
q-16 -35 -45 -60q-31 -22 -74 -35q-45 -12 -104 -12q-27 0 -55 4q-31 2 -62 6q-33 6 -65 15q-35 6 -74 16v94q47 -10 84 -16q37 -8 63 -12q29 -4 51.5 -7.5t36.5 -3.5q33 0 57.5 6.5t39.5 16.5q14 8 22 24q6 17 6 39q0 25 -8 43q-8 19 -24.5 29t-42.5 16q-27 7 -64 7h-14
q-8 0 -13 -2h-8h-10z" />
    <glyph glyph-name="Scaron" unicode="&#x160;" horiz-adv-x="1073" 
d="M907 1382l-18 -174q-33 15 -68 27t-69 20q-33 9 -70 13t-76 4q-63 0 -112 -12q-52 -13 -88 -37q-37 -23 -54.5 -56.5t-17.5 -74.5q0 -33 12 -62q12 -31 37 -59q23 -27 76 -62q53 -37 135 -82q104 -57 178 -110t113 -101q41 -47 61 -100q19 -55 19 -117q0 -90 -33 -163
q-35 -74 -101 -134q-65 -57 -151 -84q-86 -26 -188 -26q-52 0 -99 4q-49 2 -96 6q-45 10 -86 23q-43 10 -84 24l18 195q45 -25 88 -41q43 -19 82 -31q41 -10 82 -14q39 -6 78 -6q64 0 115 14q49 14 88 41q37 29 57 65q19 37 19 82q0 72 -74 150q-76 78 -225 164
q-27 14 -45.5 25.5t-30.5 19.5q-57 32 -103 73q-45 39 -77 86q-33 48 -49.5 97t-16.5 98q0 84 33 150q31 65 94 114q64 49 150 74t194 25q41 0 80 -3.5t78 -9.5t76 -14q36 -10 69 -23v2zM250 1915h108l181 -248l180 248h108l-198 -356h-180z" />
    <glyph glyph-name="scaron" unicode="&#x161;" horiz-adv-x="858" 
d="M739 999l-8 -153q-31 12 -61 22q-33 11 -66 19t-65 12q-33 2 -68 2q-39 0 -70 -6q-30 -8 -55 -25q-22 -16 -35 -36q-12 -21 -12 -50q0 -22 10 -43.5t29 -40.5q20 -18 61 -41q39 -24 101 -53q80 -37 137 -74q55 -36 86 -71q29 -35 45 -78q14 -43 14 -92q0 -70 -26 -125
q-29 -57 -86 -98q-56 -41 -131 -60q-76 -18 -172 -18q-35 0 -70 4q-35 2 -70 6q-32 4 -65 14q-35 9 -68 23l6 162q35 -21 72 -33q35 -12 68 -23q34 -8 69 -12q33 -6 66 -6q47 0 86 10q37 10 63 31q29 20 43 49q13 27 13 61q0 25 -9 48q-8 22 -24.5 40.5t-54.5 43.5
q-39 22 -101 53q-80 39 -135 75.5t-86 69.5q-31 35 -45 76q-14 39 -14 84q0 61 25.5 110.5t76.5 86t118.5 55t151.5 18.5q31 0 64 -2q31 -2 63 -6q33 -4 66 -12q31 -8 63 -19v2zM139 1520h111l178 -246l180 246h111l-201 -357h-178z" />
    <glyph glyph-name="Tcedilla" unicode="&#x162;" 
 />
    <glyph glyph-name="tcedilla" unicode="&#x163;" 
 />
    <glyph glyph-name="Tcaron" unicode="&#x164;" 
 />
    <glyph glyph-name="tcaron" unicode="&#x165;" 
 />
    <glyph glyph-name="Uring" unicode="&#x16e;" 
 />
    <glyph glyph-name="uring" unicode="&#x16f;" 
 />
    <glyph glyph-name="udblacute" unicode="&#x170;" 
 />
    <glyph glyph-name="Udblacute" unicode="&#x171;" 
 />
    <glyph glyph-name="Ydieresis" unicode="&#x178;" horiz-adv-x="1180" 
d="M-33 1419h234l393 -671l399 671h217l-524 -831v-588h-201v584zM670 1819h172v-191h-172v191zM338 1819h170v-191h-170v191z" />
    <glyph glyph-name="Zacute" unicode="&#x179;" 
 />
    <glyph glyph-name="zacute" unicode="&#x17a;" 
 />
    <glyph glyph-name="Zdot" unicode="&#x17b;" 
 />
    <glyph glyph-name="zdot" unicode="&#x17c;" 
 />
    <glyph glyph-name="Zcaron" unicode="&#x17d;" horiz-adv-x="1100" 
d="M86 1419h924v-176l-740 -1079h752v-164h-956v184l733 1078h-713v157zM260 1915h111l180 -248l178 248h111l-201 -356h-178z" />
    <glyph glyph-name="zcaron" unicode="&#x17e;" horiz-adv-x="961" 
d="M98 1026h772v-160l-585 -716h585v-150h-794v164l577 715h-555v147zM190 1520h109l180 -246l180 246h109l-199 -357h-180z" />
    <glyph glyph-name="florin" unicode="&#x192;" horiz-adv-x="1176" 
d="M1098 1440l-35 -150q-14 8 -29 17q-16 6 -30.5 10t-26.5 6q-14 2 -31 2q-33 0 -61 -14q-29 -17 -51 -47q-21 -31 -39.5 -78t-30.5 -113l-39 -194h223v-146h-256l-135 -663q-27 -136 -63 -230q-37 -96 -84 -153q-48 -56 -111 -84.5t-145 -28.5q-15 0 -29 2q-16 0 -33 4
q-14 2 -33 8q-18 4 -36 13l32 149q23 -4 39 -8q17 -6 29 -8t22 -2q11 -2 19 -2q35 0 65 16q29 14 52 49q22 33 43 90q18 56 32 131l148 717h-230v146h261l43 217q18 92 51 164q30 69 75.5 116t102.5 72q55 25 125 25h20q11 -3 21 -3l20 -4q11 -2 21 -4l20 -4q10 -4 23 -6
q10 -4 20 -6q10 -4 21 -8v2z" />
    <glyph glyph-name="hungarumlaut" unicode="&#x2ba;" horiz-adv-x="1024" 
d="M733 1520h166l-246 -357h-84zM463 1520h162l-224 -357h-79z" />
    <glyph glyph-name="tilde" unicode="&#x2c6;" horiz-adv-x="1024" 
d="M422 1520h178l201 -357h-111l-178 244l-180 -244h-111z" />
    <glyph glyph-name="caron" unicode="&#x2c7;" horiz-adv-x="1024" 
d="M221 1520h111l180 -246l178 246h111l-201 -357h-178z" />
    <glyph glyph-name="macron" unicode="&#x2c9;" horiz-adv-x="1024" 
d="M242 1395h536v-129h-536v129z" />
    <glyph glyph-name="breve" unicode="&#x2d8;" horiz-adv-x="1024" 
d="M225 1477l92 2q5 -41 19 -68q12 -29 35 -47q22 -16 59 -25q35 -10 82 -10t82 10q33 9 56.5 27t35.5 45t14 64l97 4q-6 -74 -25 -125q-20 -54 -55 -86q-33 -33 -84 -49q-53 -19 -121 -19q-70 0 -121 19q-51 16 -86 49q-35 35 -53 86q-21 51 -27 121v2z" />
    <glyph glyph-name="dotaccent" unicode="&#x2d9;" horiz-adv-x="1024" 
d="M422 1432h178v-203h-178v203z" />
    <glyph glyph-name="ring" unicode="&#x2da;" horiz-adv-x="1024" 
d="M512 1536q-31 -2 -55.5 -12.5t-44.5 -32.5q-21 -21 -29 -45q-10 -25 -10 -53q0 -31 10 -56q8 -24 29 -47q20 -20 44.5 -30.5t55.5 -10.5q29 0 53 13q25 10 45 30q23 21 33 45q8 25 8 56q0 28 -8 53q-10 24 -33 45q-20 22 -45 33q-24 10 -53 10v2zM512 1640q53 -2 98 -18
q43 -18 78 -55q37 -35 55 -78q19 -43 19 -96q0 -54 -19 -97q-18 -45 -55 -82q-37 -36 -80 -53q-45 -18 -96 -18t-96 17.5t-80 53.5q-37 37 -55 82q-19 43 -19 97q0 53 18.5 96t55.5 78q35 37 80 55q45 16 96 16v2z" />
    <glyph glyph-name="ogonek" unicode="&#x2db;" horiz-adv-x="1024" 
d="M545 0h71q-32 -29 -59 -57q-27 -31 -45 -60q-16 -28 -25.5 -55t-9.5 -53q0 -23 6 -39.5t19 -24.5q12 -10 33 -14q18 -4 45 -4h84v-127h-74q-62 0 -105 10q-45 8 -73 29q-27 20 -41.5 53t-14.5 78q0 33 12.5 64.5t34.5 66.5q25 33 60 66.5t82 66.5z" />
    <glyph glyph-name="circumflex" unicode="&#x2dc;" horiz-adv-x="1024" 
d="M721 1442h88q-12 -53 -31 -90q-18 -37 -43 -62q-24 -26 -55 -39q-31 -12 -68 -12q-8 0 -14 2q-8 0 -16 2q-4 0 -11 2q-6 0 -12 2q-4 0 -6 2h-6l-98 31q-9 2 -17 4q-10 2 -16 2q-2 0 -4 2h-6h-7h-6q-14 0 -28.5 -4t-26.5 -12q-10 -8 -19 -23q-10 -14 -18 -32l-90 2
q12 47 30.5 83.5t43 61.5t55.5 37t70 12h18t16 -2h17q6 -2 12 -6l98 -29q4 -2 9 -2q2 -2 6 -2q4 -2 8 -2q2 -2 6 -2q6 -2 12 -2q6 -2 15 -2q16 0 30 6q15 4 25 14q12 11 23 25q8 12 16 31v2z" />
    <glyph glyph-name="Gamma" unicode="&#x393;" 
 />
    <glyph glyph-name="Theta" unicode="&#x398;" 
 />
    <glyph glyph-name="summation" unicode="&#x3a3;" horiz-adv-x="1378" 
d="M53 1473h1260v-193h-961l672 -719l-692 -762h1005v-190h-1312v147l725 799l-697 739v179z" />
    <glyph glyph-name="Phi" unicode="&#x3a6;" 
 />
    <glyph glyph-name="Omega" unicode="&#x3a9;" horiz-adv-x="1565" 
d="M1487 176v-176h-600v176q88 47 157 115q68 65 117 147q51 84 76 176q25 93 25 193q0 121 -33 217q-35 94 -101 168q-65 72 -151 108q-88 35 -197 35q-106 0 -194 -35.5t-154 -109.5q-65 -72 -98 -168q-35 -96 -35 -215q0 -100 27 -193q24 -92 73 -176q50 -82 121 -147
q70 -68 158 -117v-174h-600v176h317q-78 70 -135 141q-59 72 -94 146q-37 76 -55 160q-19 82 -19 174q0 157 49 286t144 228q96 98 221 147q123 49 274 49q152 0 277 -49t219 -147q96 -99 145 -224q47 -126 47 -280q0 -98 -16 -182q-18 -86 -53 -160q-37 -76 -94 -148
q-58 -71 -140 -143z" />
    <glyph glyph-name="alpha" unicode="&#x3b1;" 
 />
    <glyph glyph-name="delta" unicode="&#x3b4;" 
 />
    <glyph glyph-name="epsilon" unicode="&#x3b5;" 
 />
    <glyph glyph-name="pi" unicode="&#x3c0;" horiz-adv-x="1204" 
d="M1157 911h-180l-107 -485q-8 -41 -12 -70q-6 -30 -10 -53q-2 -22 -4 -39.5t-2 -27.5q0 -29 6 -50q4 -22 16 -34q13 -13 33 -19q18 -6 45 -6q10 0 21 2q8 0 20 2q8 0 16 2q9 0 21 2q4 0 10 2h12l-28 -137q-15 -4 -29 -6q-16 -2 -29 -4q-14 -4 -26 -4h-29q-57 0 -102 10
t-76 37q-29 24 -43 63q-16 37 -16 86q0 23 2 53.5t8 65.5q4 35 16 93.5t29 140.5l80 376h-328l-192 -911h-183l197 911h-41q-27 -2 -47 -8q-23 -8 -37 -24.5t-25 -40.5q-12 -27 -16 -62l-158 2q17 82 40.5 139.5t58 88t94.5 47.5q59 14 141 14l891 2z" />
    <glyph glyph-name="sigma" unicode="&#x3c3;" 
 />
    <glyph glyph-name="tau" unicode="&#x3c4;" 
 />
    <glyph glyph-name="phi" unicode="&#x3c6;" 
 />
    <glyph glyph-name="endash.0" unicode="&#x2013;" horiz-adv-x="1024" 
d="M0 616h1024v-112h-1024v112z" />
    <glyph glyph-name="endash" unicode="&#x2014;" horiz-adv-x="2048" 
d="M0 616h2048v-112h-2048v112z" />
    <glyph glyph-name="underscoredbl" unicode="&#x2017;" 
 />
    <glyph glyph-name="quoteleft" unicode="&#x2018;" horiz-adv-x="588" 
d="M299 1419h168l-127 -471h-209z" />
    <glyph glyph-name="quoteright" unicode="&#x2019;" horiz-adv-x="588" 
d="M262 1419h207l-168 -471h-166z" />
    <glyph glyph-name="quotesinglbase" unicode="&#x201a;" horiz-adv-x="588" 
d="M223 215h207l-166 -469h-168z" />
    <glyph glyph-name="quotedblleft" unicode="&#x201c;" horiz-adv-x="999" 
d="M713 1419h168l-127 -471h-207zM299 1419h168l-127 -471h-209z" />
    <glyph glyph-name="quotedblright" unicode="&#x201d;" horiz-adv-x="999" 
d="M676 1419h209l-168 -471h-166zM262 1419h207l-168 -471h-166z" />
    <glyph glyph-name="quotedblbase" unicode="&#x201e;" horiz-adv-x="999" 
d="M639 215h207l-168 -469h-166zM223 215h207l-166 -469h-168z" />
    <glyph glyph-name="dagger" unicode="&#x2020;" horiz-adv-x="1024" 
d="M422 1440h174v-420h360v-152h-360v-1118h-174v1118h-356v152h356v420z" />
    <glyph glyph-name="daggerdbl" unicode="&#x2021;" horiz-adv-x="1024" 
d="M422 1440h172v-408h369v-145h-369v-586h369v-145h-369v-406h-172v408h-363v143h363v586h-363v145h363v408z" />
    <glyph glyph-name="bullet.0" unicode="&#x2022;" horiz-adv-x="1206" 
d="M305 762q0 59 22.5 111.5t65.5 95.5t95.5 64.5t113.5 21.5q62 0 115 -21q51 -22 94 -67q43 -43 66 -95q20 -53 20 -112q0 -62 -20 -113q-23 -53 -66 -98q-45 -43 -96 -64q-53 -22 -115 -22q-61 0 -113.5 21.5t-95.5 64.5t-63 96q-23 53 -23 115v2z" />
    <glyph glyph-name="ellipsis" unicode="&#x2026;" horiz-adv-x="2048" 
d="M233 217h211v-217h-211v217zM915 217h211v-217h-211v217zM1599 217h211v-217h-211v217z" />
    <glyph glyph-name="perthousand" unicode="&#x2030;" horiz-adv-x="2583" 
d="M2187 623q-39 -2 -69 -21q-31 -18 -54 -53q-22 -35 -34 -82q-13 -49 -13 -111q0 -59 13 -106q12 -49 34 -84q23 -35 53.5 -53.5t69.5 -18.5q41 0 72 18.5t53 51.5q23 35 33 84q10 47 10 108q0 64 -10 113q-10 47 -33 82q-22 35 -53 52.5t-72 17.5v2zM1380 623
q-39 -2 -69 -21q-31 -18 -54 -53q-20 -35 -32 -82q-13 -49 -13 -111q0 -59 13 -106q12 -49 32 -84q23 -35 53.5 -53.5t69.5 -18.5q41 0 72 18.5t53 53.5q23 35 35 84q10 47 10 106q0 62 -10 111q-12 49 -35 84q-22 35 -53 52.5t-72 17.5v2zM2185 741q78 -2 139 -26
q60 -27 105 -78t68 -121q20 -72 20 -162q0 -88 -20 -155q-23 -70 -70 -123q-45 -53 -105 -78q-59 -25 -137 -25q-74 0 -133 25t-106 76q-45 53 -66.5 122.5t-21.5 157.5q0 90 22 162q21 70 66 121t104 78q59 24 135 24v2zM1380 741q78 -2 138 -26q59 -27 104 -78t68 -121
q20 -72 20 -162q0 -88 -20 -157q-23 -70 -68 -123q-45 -51 -104 -76q-62 -25 -138 -25q-75 0 -135 25q-59 25 -104 78t-68 123q-22 67 -22 155q0 90 22 162q23 70 68 121t104 78q60 24 135 24v2zM410 1325q-39 -2 -70 -18q-33 -19 -55 -54q-23 -34 -33 -82q-12 -49 -12 -108
q0 -62 12 -109q10 -49 33 -84q22 -34 55 -51q31 -18 70 -18t69 18q31 17 53 51q23 35 34.5 82t11.5 111q0 61 -11 111q-12 47 -35 81q-20 35 -51.5 51.5t-70.5 16.5v2zM1202 1448h137l-751 -1475h-139zM408 1448q75 -2 134.5 -27.5t104.5 -79.5q47 -51 70 -120
q20 -72 20 -160t-20 -158q-23 -69 -70 -123q-45 -51 -104 -78q-60 -26 -135 -26q-76 0 -136 26q-61 27 -106 78q-45 54 -68 123q-22 70 -22 158t22 160q23 69 68 120q45 54 105.5 79.5t136.5 25.5v2z" />
    <glyph glyph-name="guilsinglleft" unicode="&#x2039;" horiz-adv-x="582" 
d="M342 948h170l-258 -418l258 -415h-170l-266 415z" />
    <glyph glyph-name="guilsinglright" unicode="&#x203a;" horiz-adv-x="582" 
d="M70 948h170l266 -418l-268 -415h-168l258 415z" />
    <glyph glyph-name="exclamdbl" unicode="&#x203c;" 
 />
    <glyph glyph-name="nsuperior" unicode="&#x207f;" 
 />
    <glyph glyph-name="franc" unicode="&#x20a3;" horiz-adv-x="1714" 
d="M174 1419h735v-153h-534v-457h514v-160h-514v-649h-201v1419zM1696 1038l-6 -182q-13 2 -23 4l-20 4q-9 2 -17 2h-20q-66 0 -117 -22.5t-86 -69.5q-35 -45 -53.5 -110.5t-18.5 -151.5v-512h-188v1026h172v-211q22 55 51 98t68 72t84 45q43 14 94 14h8h8q6 -2 10 -2h11
q10 -2 20 -2q10 -2 23 -4v2z" />
    <glyph glyph-name="peseta" unicode="&#x20a7;" 
 />
    <glyph glyph-name="trademark" unicode="&#x2122;" horiz-adv-x="1706" 
d="M963 1456l149 -385l141 385h152v-536h-98v444l-166 -444h-58l-174 444v-444h-98v536h152zM692 1456v-80h-172v-456h-106v456h-172v80h450z" />
    <glyph glyph-name="arrowleft" unicode="&#x2190;" 
 />
    <glyph glyph-name="arrowup" unicode="&#x2191;" 
 />
    <glyph glyph-name="arrowright" unicode="&#x2192;" 
 />
    <glyph glyph-name="arrowdown" unicode="&#x2193;" 
 />
    <glyph glyph-name="arrowboth" unicode="&#x2194;" 
 />
    <glyph glyph-name="arrowupdn" unicode="&#x2195;" 
 />
    <glyph glyph-name="arrowupdnbase" unicode="&#x21a8;" 
 />
    <glyph glyph-name="partialdiff" unicode="&#x2202;" horiz-adv-x="1059" 
d="M756 621q8 41 14 84q4 40 8 81t6 80v76q0 66 -8 115q-10 47 -28 80q-17 34 -43 51q-29 14 -66 14q-27 0 -57 -14q-33 -14 -70 -43q-35 -29 -61 -43q-29 -15 -45 -15q-19 0 -33 7q-17 4 -29 14q-10 12 -16 27q-6 12 -6 26q0 33 18 62q16 26 53 51q35 22 78 34.5t94 12.5
q90 0 164 -37q72 -39 123 -117q53 -77 82 -182q27 -104 27 -235q0 -168 -37 -308q-37 -139 -109 -249.5t-160 -163.5q-90 -54 -196 -54q-76 0 -140 27q-63 25 -114 78t-76 121q-27 67 -27 149q0 101 29 182q27 82 82 146q55 65 125 98q68 31 147 31q52 0 92.5 -12.5
t73.5 -34.5q35 -23 59.5 -58.5t45.5 -83.5v3zM707 494q0 55 -11.5 100t-33.5 76q-21 30 -52 47q-30 14 -69 14q-56 0 -101 -31.5t-80 -97.5q-34 -63 -51.5 -147t-17.5 -189q0 -57 12 -100q10 -45 31 -76q22 -31 53 -45q31 -16 70 -16q53 0 98 32q45 33 80 97q35 65 53 149
q19 84 19 185v2z" />
    <glyph glyph-name="Delta" unicode="&#x2206;" horiz-adv-x="1368" 
d="M1102 176l-420 1086l-418 -1086h838zM797 1473l577 -1473h-1378l575 1473h226z" />
    <glyph glyph-name="product" unicode="&#x220f;" horiz-adv-x="1548" 
d="M156 1473h1237v-1864h-242v1659h-758v-1659h-237v1864z" />
    <glyph glyph-name="minus" unicode="&#x2212;" horiz-adv-x="1706" 
d="M1450 682v-141h-1196v141h1196z" />
    <glyph glyph-name="fraction" unicode="&#x2215;" horiz-adv-x="340" 
d="M477 1448h137l-749 -1475h-139z" />
    <glyph glyph-name="periodcentered" unicode="&#x2219;" horiz-adv-x="588" 
d="M293 823q22 -2 42.5 -10t37.5 -25q16 -16 25.5 -36.5t9.5 -42.5q0 -25 -9.5 -45.5t-25.5 -36.5q-17 -15 -37 -23q-21 -10 -43 -10q-23 0 -43 10q-21 8 -37 24.5t-25.5 37t-9.5 43.5q0 22 9.5 42.5t25.5 36.5q16 17 37 25q18 8 43 8v2z" />
    <glyph glyph-name="radical" unicode="&#x221a;" horiz-adv-x="1305" 
d="M1305 1661v-96h-115l-594 -1606h-68l-317 883l-127 -45l-25 80l283 98l256 -711l516 1397h191z" />
    <glyph glyph-name="infinity" unicode="&#x221e;" horiz-adv-x="1706" 
d="M913 557q27 -47 55.5 -80t61.5 -55q35 -21 72 -31q37 -12 80 -12q51 0 92 16q39 17 72 49q32 35 49 80q14 43 14 94q0 52 -14 95q-15 41 -43 73q-31 35 -68 52q-37 14 -82 14q-39 0 -76 -14q-36 -17 -69 -52q-33 -32 -68 -90q-37 -57 -76 -141v2zM793 666q-25 41 -54 75
q-28 33 -63 54q-33 22 -70 34q-39 11 -82 11q-51 0 -90 -17q-41 -16 -74 -51q-32 -33 -47.5 -76t-15.5 -96q0 -49 14 -90q15 -43 43 -78q31 -33 68 -49t82 -16q41 0 78 16q34 16 67 49t70 92q35 58 74 140v2zM842 735q35 68 70.5 119t74.5 84q41 33 86 49q43 17 90 17
q68 0 125 -29q58 -29 103 -84q47 -57 71 -127q25 -70 25 -154q0 -86 -21 -155q-22 -72 -63 -125.5t-96 -79.5q-56 -29 -121 -29q-47 0 -90 17q-43 14 -80 42.5t-74 79.5q-39 50 -80 119q-35 -67 -71 -117q-37 -49 -76 -81q-39 -31 -82 -48q-43 -16 -90 -16
q-68 0 -125.5 28.5t-104.5 84.5q-45 57 -69 127q-25 67 -25 149q0 88 23 160q20 70 61 125q41 53 96 80q56 26 121 26q47 0 90 -14q43 -16 80 -47q19 -14 39 -35q19 -20 37 -47q18 -25 39 -55q18 -31 37 -66v2z" />
    <glyph glyph-name="orthogonal" unicode="&#x221f;" 
 />
    <glyph glyph-name="intersection" unicode="&#x2229;" 
 />
    <glyph glyph-name="integral" unicode="&#x222b;" horiz-adv-x="1065" 
d="M309 -260q53 0 84 172q29 170 37 512v51q0 23 2 43v39v31q6 258 35 442q27 184 74 295t123 166q73 55 174 55q41 0 73 -8q31 -10 56 -33q24 -20 39 -47q12 -26 12 -59q0 -27 -8 -47q-9 -23 -25 -39q-14 -15 -37 -23q-22 -10 -51 -10q-20 0 -37.5 6t-32.5 14
q-14 11 -22 25q-10 12 -17 29q-2 8 -4 20q-4 12 -6 30.5t-6 29.5q-6 8 -14 8q-56 0 -84 -154q-31 -155 -37 -467q-2 -96 -4 -172t-4 -131q-8 -239 -37 -407q-29 -170 -76 -275q-47 -102 -119 -153q-73 -54 -172 -54q-39 0 -69 11q-33 10 -60 32q-24 21 -37.5 46.5
t-13.5 60.5q0 26 10 49q8 20 24.5 36.5t41.5 24.5q24 9 53 9q16 0 30.5 -4.5t26.5 -10.5q13 -8 23 -18q8 -10 16 -25q6 -10 10.5 -24.5t6.5 -34.5q2 -23 8 -31q6 -10 14 -10z" />
    <glyph glyph-name="approxequal" unicode="&#x2248;" horiz-adv-x="1706" 
d="M1530 428q-53 -37 -103 -63q-51 -29 -98 -46q-24 -8 -47 -14q-25 -6 -47.5 -10t-44.5 -6q-25 -2 -49 -2q-47 0 -119 17.5t-168 49.5q-94 35 -166 52q-74 16 -127 16q-39 0 -82 -8q-43 -11 -88 -29t-98 -49t-117 -74v160q55 33 106.5 60.5t98.5 45t94 27.5q45 8 88 8
q60 0 135 -16q76 -17 170 -51q97 -33 166 -52q68 -18 109 -18q43 0 88 10q43 8 88 27q45 16 98 47q51 31 113 74v-156zM1530 799q-53 -39 -103.5 -66.5t-97.5 -44.5q-24 -8 -47 -14q-25 -6 -47 -12q-23 -5 -45 -7q-25 -2 -49 -2q-47 0 -119 19q-72 16 -168 51
q-94 35 -166 51q-74 17 -127 17q-41 0 -84 -9.5t-86 -27.5q-45 -19 -98 -47q-53 -31 -117 -74v158q53 32 105 61q51 27 98 43q47 18 94 29q45 8 90 8q60 0 137 -17q76 -16 170 -51q95 -33 164 -49q68 -18 109 -18q43 0 86 8t88 24q45 19 98 50q51 28 115 71v-151z" />
    <glyph glyph-name="notequal" unicode="&#x2260;" horiz-adv-x="1706" 
d="M1313 1110l-189 -233h326v-138h-416l-205 -262h621v-135h-709l-247 -315l-107 84l184 231h-317v135h408l202 262h-610v138h700l252 317z" />
    <glyph glyph-name="equivalence" unicode="&#x2261;" 
 />
    <glyph glyph-name="lessequal" unicode="&#x2264;" horiz-adv-x="1706" 
d="M1446 162v-139h-1186v139h1186zM1444 1059l-936 -309l936 -308v-147l-1184 393v121l1184 395v-145z" />
    <glyph glyph-name="greaterequal" unicode="&#x2265;" horiz-adv-x="1706" 
d="M1446 162v-139h-1186v139h1186zM1446 809v-121l-1186 -393v147l938 308l-938 309v145z" />
    <glyph glyph-name="house" unicode="&#x2302;" 
 />
    <glyph glyph-name="revlogicalnot" unicode="&#x2310;" 
 />
    <glyph glyph-name="integraltp" unicode="&#x2320;" 
 />
    <glyph glyph-name="integralbt" unicode="&#x2321;" 
 />
    <glyph glyph-name="2500" unicode="&#x2500;" 
 />
    <glyph glyph-name="2502" unicode="&#x2502;" 
 />
    <glyph glyph-name="250c" unicode="&#x250c;" 
 />
    <glyph glyph-name="2510" unicode="&#x2510;" 
 />
    <glyph glyph-name="2514" unicode="&#x2514;" 
 />
    <glyph glyph-name="2518" unicode="&#x2518;" 
 />
    <glyph glyph-name="251c" unicode="&#x251c;" 
 />
    <glyph glyph-name="2524" unicode="&#x2524;" 
 />
    <glyph glyph-name="252c" unicode="&#x252c;" 
 />
    <glyph glyph-name="2534" unicode="&#x2534;" 
 />
    <glyph glyph-name="253c" unicode="&#x253c;" 
 />
    <glyph glyph-name="2550" unicode="&#x2550;" 
 />
    <glyph glyph-name="2551" unicode="&#x2551;" 
 />
    <glyph glyph-name="2552" unicode="&#x2552;" 
 />
    <glyph glyph-name="2553" unicode="&#x2553;" 
 />
    <glyph glyph-name="2554" unicode="&#x2554;" 
 />
    <glyph glyph-name="2555" unicode="&#x2555;" 
 />
    <glyph glyph-name="2556" unicode="&#x2556;" 
 />
    <glyph glyph-name="2557" unicode="&#x2557;" 
 />
    <glyph glyph-name="2558" unicode="&#x2558;" 
 />
    <glyph glyph-name="2559" unicode="&#x2559;" 
 />
    <glyph glyph-name="255a" unicode="&#x255a;" 
 />
    <glyph glyph-name="255b" unicode="&#x255b;" 
 />
    <glyph glyph-name="255c" unicode="&#x255c;" 
 />
    <glyph glyph-name="255d" unicode="&#x255d;" 
 />
    <glyph glyph-name="255e" unicode="&#x255e;" 
 />
    <glyph glyph-name="255f" unicode="&#x255f;" 
 />
    <glyph glyph-name="2560" unicode="&#x2560;" 
 />
    <glyph glyph-name="2561" unicode="&#x2561;" 
 />
    <glyph glyph-name="2562" unicode="&#x2562;" 
 />
    <glyph glyph-name="2563" unicode="&#x2563;" 
 />
    <glyph glyph-name="2564" unicode="&#x2564;" 
 />
    <glyph glyph-name="2565" unicode="&#x2565;" 
 />
    <glyph glyph-name="2566" unicode="&#x2566;" 
 />
    <glyph glyph-name="2567" unicode="&#x2567;" 
 />
    <glyph glyph-name="2568" unicode="&#x2568;" 
 />
    <glyph glyph-name="2569" unicode="&#x2569;" 
 />
    <glyph glyph-name="256a" unicode="&#x256a;" 
 />
    <glyph glyph-name="256b" unicode="&#x256b;" 
 />
    <glyph glyph-name="256c" unicode="&#x256c;" 
 />
    <glyph glyph-name="upblock" unicode="&#x2580;" 
 />
    <glyph glyph-name="dnblock" unicode="&#x2584;" 
 />
    <glyph glyph-name="block" unicode="&#x2588;" 
 />
    <glyph glyph-name="lfblock" unicode="&#x258c;" 
 />
    <glyph glyph-name="rtblock" unicode="&#x2590;" 
 />
    <glyph glyph-name="ltshade" unicode="&#x2591;" 
 />
    <glyph glyph-name="shade" unicode="&#x2592;" 
 />
    <glyph glyph-name="dkshade" unicode="&#x2593;" 
 />
    <glyph glyph-name="filledbox" unicode="&#x25a0;" 
 />
    <glyph glyph-name="filledrect" unicode="&#x25ac;" 
 />
    <glyph glyph-name="triagup" unicode="&#x25b2;" 
 />
    <glyph glyph-name="triagrt" unicode="&#x25ba;" 
 />
    <glyph glyph-name="triagdn" unicode="&#x25bc;" 
 />
    <glyph glyph-name="triaglf" unicode="&#x25c4;" 
 />
    <glyph glyph-name="lozenge" unicode="&#x25ca;" horiz-adv-x="1012" 
d="M506 1407l-385 -815l385 -823l385 823zM506 1653l500 -1061l-500 -1067l-502 1067z" />
    <glyph glyph-name="circle" unicode="&#x25cb;" 
 />
    <glyph glyph-name="invbullet" unicode="&#x25d8;" 
 />
    <glyph glyph-name="invcircle" unicode="&#x25d9;" 
 />
    <glyph glyph-name="smileface" unicode="&#x263a;" 
 />
    <glyph glyph-name="invsmileface" unicode="&#x263b;" 
 />
    <glyph glyph-name="sun" unicode="&#x263c;" 
 />
    <glyph glyph-name="female" unicode="&#x2640;" 
 />
    <glyph glyph-name="male" unicode="&#x2642;" 
 />
    <glyph glyph-name="spade" unicode="&#x2660;" 
 />
    <glyph glyph-name="club" unicode="&#x2663;" 
 />
    <glyph glyph-name="heart" unicode="&#x2665;" 
 />
    <glyph glyph-name="diamond" unicode="&#x2666;" 
 />
    <glyph glyph-name="musicalnote" unicode="&#x266a;" 
 />
    <glyph glyph-name="musicalnotedbl" unicode="&#x266b;" 
 />
    <glyph glyph-name="apple" unicode="&#xf000;" horiz-adv-x="1618" 
d="M836 1214q-2 3 -2 7v6v10v12q0 64 23.5 121t70.5 109q47 53 106 86q60 32 129 47q0 -2 2 -4v-4v-7v-10v-14v-25q0 -63 -24 -121q-27 -59 -78 -112q-51 -51 -102.5 -78t-102.5 -27l-6 2v-2h-4t-2 2h-2h-4h-4v2zM1503 401q-57 -125 -106 -211q-51 -86 -99 -133
q-45 -45 -96 -67q-51 -25 -106 -25q-27 0 -60 10q-32 9 -73 25q-39 12 -70 20q-31 9 -51 9q-23 0 -56 -9q-32 -8 -75 -20q-43 -16 -74 -25q-33 -10 -53 -10q-33 0 -64 12q-33 11 -65 29q-33 23 -64 55q-33 33 -65 76q-52 72 -90.5 145.5t-67.5 151.5q-27 78 -41 154
q-14 74 -14 145q0 111 30 201q31 88 95 156q61 69 143 104q80 35 178 35q35 0 74 -8q39 -11 82 -27t76 -25q30 -10 49 -10q16 0 47 10q28 9 74 25q43 18 81 29q37 8 70 8q55 0 104.5 -10.5t94.5 -31t86 -50.5q39 -31 76 -74q-52 -33 -89.5 -68.5t-62.5 -76.5
q-25 -39 -37 -84t-12 -99q0 -55 14 -104q14 -51 45 -94q29 -45 74 -78q43 -35 98 -62v2z" />
    <glyph glyph-name="fi" unicode="&#xf001;" horiz-adv-x="1235" 
d="M883 1026h188v-1026h-188v1026zM883 1499h188v-190h-188v190zM715 1532l-6 -156q-17 4 -31 8q-14 5 -27 7q-12 4 -22 6h-23q-39 0 -67 -13q-31 -14 -52 -43q-18 -26 -26 -67q-10 -41 -10 -96v-152h237v-143h-237v-883h-191v883h-215v143h215v164q0 86 23 153
q20 66 61 111q41 47 102 70q62 20 144 20h31q14 0 28 -4q17 -2 33 -4t33 -6v2z" />
    <glyph glyph-name="fl" unicode="&#xf002;" horiz-adv-x="1235" 
d="M883 1530h188v-1530h-188v1530zM715 1532l-6 -156q-17 4 -31 8q-14 5 -27 7q-10 4 -20 6h-23q-39 0 -69.5 -13.5t-49.5 -40.5q-20 -26 -28 -67q-10 -43 -10 -98v-152h237v-143h-237v-883h-191v883h-215v143h215v164q0 86 23 153q20 66 61 111q41 47 102 70q62 20 144 20
h31q14 0 28 -4q17 -2 33 -4t33 -6v2z" />
    <glyph glyph-name="degree" horiz-adv-x="1024" 
d="M512 1536q-31 -2 -55.5 -12.5t-44.5 -32.5q-21 -21 -29 -45q-10 -25 -10 -53q0 -31 10 -56q8 -24 29 -47q20 -20 44.5 -30.5t55.5 -10.5q29 0 53 13q25 10 45 30q23 21 33 45q8 25 8 56q0 28 -8 53q-10 24 -33 45q-20 22 -45 33q-24 10 -53 10v2zM512 1640q53 -2 98 -18
q43 -18 78 -55q37 -35 55 -78q19 -43 19 -96q0 -54 -19 -97q-18 -45 -55 -82q-37 -36 -80 -53q-45 -18 -96 -18t-96 17.5t-80 53.5q-37 37 -55 82q-19 43 -19 97q0 53 18.5 96t55.5 78q35 37 80 55q45 16 96 16v2z" />
    <glyph glyph-name="bullet" horiz-adv-x="1206" 
d="M305 762q0 59 22.5 111.5t65.5 95.5t95.5 64.5t113.5 21.5q62 0 115 -21q51 -22 94 -67q43 -43 66 -95q20 -53 20 -112q0 -62 -20 -113q-23 -53 -66 -98q-45 -43 -96 -64q-53 -22 -115 -22q-61 0 -113.5 21.5t-95.5 64.5t-63 96q-23 53 -23 115v2z" />
    <glyph glyph-name="emdash" horiz-adv-x="1024" 
d="M0 616h1024v-112h-1024v112z" />
    </font>
</defs>
</svg>
